osu file format v9

[General]
AudioFilename: battle-arceus.mp3
AudioLeadIn: 0
PreviewTime: -1
Countdown: 0
SampleSet: Normal
StackLeniency: 0.7
Mode: 0
LetterboxInBreaks: 1

[Editor]
DistanceSpacing: 0.8
BeatDivisor: 4
GridSize: 32

[Metadata]
Title:Arceus battle theme
Artist:Hitomi Sato
Creator:zozozofun
Version:Great Ball
Source:Pokemon Diamond Pearl Platinum
Tags:

[Difficulty]
HPDrainRate:5
CircleSize:5
OverallDifficulty:4
ApproachRate:4
SliderMultiplier:2.4
SliderTickRate:2

[Events]
//Background and Video events
0,0,"Arceus.png"
//Break Periods
2,6690,8370
//Storyboard Layer 0 (Background)
//Storyboard Layer 1 (Fail)
//Storyboard Layer 2 (Pass)
//Storyboard Layer 3 (Foreground)
//Storyboard Sound Samples
//Background Colour Transformations
3,100,163,162,255

[TimingPoints]
3290,800,4,1,0,100,1,0

[Colours]
Combo1 : 177,131,131
Combo2 : 230,230,230
Combo3 : 255,255,128
Combo4 : 0,128,64

[HitObjects]
32,192,3290,2,0,B|160:192|160:192,1,120
480,192,6090,2,0,B|320:192|320:192,1,120,0|4
32,32,9690,5,8
480,32,11290,1,8
480,352,12890,1,8
32,352,14490,1,8
256,288,16090,5,0
192,288,16490,2,0,B|128:288|128:288,2,60,0|0|8
320,288,17290,2,0,B|416:288|416:288,2,60,0|0|8
256,288,18090,6,0,B|256:192|256:192,1,60
256,192,18490,2,8,B|256:124|256:124,1,60
256,96,18890,2,0,B|256:24|256:24,1,60
256,0,19290,1,4
352,0,19690,6,0,B|416:0|416:0,2,60,0|0|8
352,55,20490,2,0,B|352:151|352:151,2,60,0|0|8
320,32,21290,6,0,B|256:32|256:32,3,60,0|0|8|8
260,32,22090,2,0,B|192:32|192:32,1,60
160,32,22490,1,4
96,32,22890,5,8
64,32,23090,1,0
64,64,23290,1,8
64,96,23490,1,0
64,128,23690,2,0,B|64:192|64:192,1,60
64,188,24290,1,0
64,224,24490,5,0
64,256,24690,1,0
64,288,24890,1,8
96,288,25090,1,0
128,288,25290,1,0
160,288,25490,1,0
256,192,26090,12,0,28890
128,96,29290,6,0,B|128:32|128:32,2,60,0|0|4
128,160,30090,2,0,B|128:224|128:224,2,60,0|0|4
192,128,30890,5,0
224,128,31090,1,0
256,128,31290,2,8,B|352:128|352:128,1,60
316,128,31690,2,0,B|384:128|384:128,1,60
376,128,32090,1,8
448,128,32490,6,0,B|448:192|448:192,2,60,0|0|8
512,192,33290,2,0,B|512:128|512:128,2,60,0|8|0
448,256,34090,5,0
448,256,34290,2,0,B|384:256|384:256,1,60
340,255,34690,1,0
287,253,34890,6,0,B|95:221|191:29|191:29,1,300
256,192,36090,12,0,37690
64,160,38090,6,0,B|64:320|64:320,1,120
192,288,39090,2,8,B|320:288|544:160|480:160|480:160|480:160|480:160,2,300
192,288,41290,1,0
128,288,41690,1,0
128,224,42090,6,0,B|64:224|64:224,2,60,0|0|2
192,224,42890,1,0
192,192,43090,1,0
192,160,43290,1,2
160,96,43690,6,0,B|224:96|224:96,1,60
252,96,44090,1,0
288,96,44290,1,8
320,96,44490,1,0
352,96,44690,2,0,B|416:96|416:96,1,60,8|0
412,96,45290,6,0,B|412:192|412:192,2,60,0|0|2
416,32,46090,2,0,B|256:32|256:32,1,120,0|4
224,32,46890,2,0,B|160:32|160:32,3,60
128,32,47690,6,2,B|192:96|320:320|128:352|128:352,2,360,0|2|0
128,32,50290,1,0
27,30,50890,2,0,B|27:286|27:286,3,240
96,256,54090,1,0
128,256,54490,1,0
160,256,54890,6,0,B|160:160|160:160,2,60,0|0|4
153,331,55690,1,0
197,329,55890,1,0
238,326,56090,1,4
320,320,56490,6,0,B|384:320|384:320,6,60,0|0|0|8|0|0|8
192,320,58090,5,0
192,320,58290,1,0
192,320,58490,1,8
192,224,58890,5,0
192,224,59090,1,0
192,224,59290,1,8
192,128,59690,5,8
224,96,59890,1,0
256,128,60090,1,0
288,160,60290,1,8
320,128,60490,2,0,B|384:128|384:128,1,60
379,129,60890,6,4,B|411:225|379:385|155:321|155:321,1,360,4|0
170,324,62490,2,4,B|74:292|-22:36|106:-28|106:-28,1,360,4|0
74,8,64090,2,4,B|190:22|320:109|320:267|86:309|171:259|171:259,1,360,4|0
197,254,65690,2,4,B|91:243|-38:112|33:10|203:104|203:104,1,360,4|0
256,96,67290,5,0
256,64,70090,5,0
256,160,70490,1,4
