osu file format v13

[General]
AudioFilename: emotional flutter.mp3
AudioLeadIn: 0
PreviewTime: 75321
Countdown: 0
SampleSet: Normal
StackLeniency: 0.7
Mode: 0
LetterboxInBreaks: 1
WidescreenStoryboard: 0

[Editor]
DistanceSpacing: 1.1
BeatDivisor: 4
GridSize: 4
TimelineZoom: 1.6

[Metadata]
Title:emotional flutter (movie ver.)
TitleUnicode:emotional flutter (movie ver.)
Artist:Hitomi Harada
ArtistUnicode:Hitomi Harada
Creator:alvicala
Version:Insane
Source:ef - a fairy tale of the two.
Tags:
BeatmapID:504854
BeatmapSetID:214913

[Difficulty]
HPDrainRate:5
CircleSize:4
OverallDifficulty:7
ApproachRate:8
SliderMultiplier:1.4
SliderTickRate:1

[Events]
//Background and Video events
0,0,"ef.-.a.fairy.tale.of.the.two..full.275585.jpg",0,0
//Break Periods
//Storyboard Layer 0 (Background)
//Storyboard Layer 1 (Fail)
//Storyboard Layer 2 (Pass)
//Storyboard Layer 3 (Foreground)
//Storyboard Sound Samples

[TimingPoints]
34140,545.454545454546,4,1,0,100,1,0
36321,-142.857142857143,4,2,0,80,0,0
53776,-100,4,1,0,60,0,0
62503,-83.3333333333333,4,1,0,60,0,0
73958,-76.9230769230769,4,1,0,60,0,0
74503,-71.4285714285714,4,1,0,60,0,0
75594,-66.6666666666667,4,1,0,70,0,1
90867,-133.333333333333,4,1,0,70,0,1
93049,-66.6666666666667,4,1,0,70,0,1
99594,-133.333333333333,4,1,0,55,0,1
103958,-66.6666666666667,4,1,0,55,0,0

[HitObjects]
136,304,36321,6,0,B|136:256|152:227|123:194,1,97.9999970092774,0|0,0:0|0:0,0:0:0:0:
108,176,37140,1,2,0:0:0:0:
108,176,37685,1,0,0:0:0:0:
156,100,37958,2,0,P|188:100|216:108,1,48.9999985046387,0|0,0:0|0:0,0:0:0:0:
308,104,38503,2,0,B|340:128|313:174|350:201,1,97.9999970092774,2|0,0:0|0:0,0:0:0:0:
362,226,39321,1,0,0:0:0:0:
296,332,39594,6,0,P|324:332|352:336,1,48.9999985046387,2|0,0:0|0:0,0:0:0:0:
192,232,40140,2,0,P|164:232|136:236,1,48.9999985046387,2|0,0:0|0:0,0:0:0:0:
288,144,40685,2,0,B|302:120|257:114|280:46,1,97.9999970092774,2|0,0:0|0:0,0:0:0:0:
98,87,41503,1,0,0:0:0:0:
134,73,41776,2,0,B|168:89|195:50|248:77,1,97.9999970092774,2|0,0:0|0:0,0:0:0:0:
268,76,42594,1,0,0:0:0:0:
408,73,42867,6,0,P|418:42|435:26,1,48.9999985046387,2|0,0:0|0:0,0:0:0:0:
350,164,43412,2,0,B|408:159|427:208|427:208|360:244|398:319|398:319|368:304|328:329,1,293.999991027832,2|2,0:0|0:0,0:0:0:0:
224,305,45594,1,0,0:0:0:0:
134,326,45867,1,2,0:0:0:0:
154,307,46412,1,2,0:0:0:0:
244,286,46685,1,0,0:0:0:0:
168,79,46958,1,0,0:0:0:0:
427,117,47230,6,0,B|467:138|452:174|478:211,1,97.9999970092774,2|0,0:0|0:0,0:0:0:0:
360,200,48049,1,0,0:0:0:0:
423,293,48321,1,2,0:0:0:0:
260,305,48594,1,0,0:0:0:0:
376,351,48867,1,2,0:0:0:0:
301,63,49140,1,0,0:0:0:0:
73,202,49412,6,0,B|94:176|129:194|150:130,1,97.9999970092774,2|0,0:0|0:0,0:0:0:0:
162,105,50230,1,0,0:0:0:0:
224,266,50503,2,0,L|275:271,1,48.9999985046387,2|0,0:0|0:0,0:0:0:0:
76,52,51049,2,0,L|25:47,1,48.9999985046387,2|0,0:0|0:0,0:0:0:0:
122,323,51594,5,2,0:0:0:0:
436,328,51867,1,0,0:0:0:0:
61,48,52140,1,2,0:0:0:0:
375,53,52412,1,0,0:0:0:0:
227,345,52685,5,2,0:0:0:0:
120,15,52958,1,0,0:0:0:0:
461,365,53230,1,2,0:0:0:0:
354,35,53503,1,0,0:0:0:0:
185,112,53776,6,0,P|177:149|177:204,1,70,4|0,0:0|0:0,0:0:0:0:
177,209,54185,1,0,0:0:0:0:
177,209,54321,1,8,0:0:0:0:
333,138,54594,1,0,0:0:0:0:
359,145,54730,1,0,0:0:0:0:
383,159,54867,1,0,0:0:0:0:
269,330,55140,1,0,0:0:0:0:
207,38,55412,1,8,0:0:0:0:
114,349,55685,5,0,0:0:0:0:
114,349,55821,1,0,0:0:0:0:
114,349,55958,1,0,0:0:0:0:
460,313,56230,1,0,0:0:0:0:
354,24,56503,1,8,0:0:0:0:
128,12,56776,1,0,0:0:0:0:
100,20,56913,1,0,0:0:0:0:
72,28,57049,1,0,0:0:0:0:
443,34,57321,1,0,0:0:0:0:
36,207,57594,1,8,0:0:0:0:
492,177,57867,5,0,0:0:0:0:
492,177,58003,1,0,0:0:0:0:
492,177,58140,1,0,0:0:0:0:
176,350,58412,1,0,0:0:0:0:
290,29,58685,1,8,0:0:0:0:
287,255,58958,5,0,0:0:0:0:
269,258,59094,1,0,0:0:0:0:
252,264,59230,1,0,0:0:0:0:
87,205,59503,1,0,0:0:0:0:
383,177,59776,1,8,0:0:0:0:
17,256,60049,1,0,0:0:0:0:
17,256,60185,1,0,0:0:0:0:
17,256,60321,1,0,0:0:0:0:
423,330,60594,5,0,0:0:0:0:
34,33,60867,1,8,0:0:0:0:
117,347,61140,1,0,0:0:0:0:
148,348,61276,1,0,0:0:0:0:
178,355,61412,1,0,0:0:0:0:
62,191,61685,1,0,0:0:0:0:
372,349,61958,1,8,0:0:0:0:
294,38,62230,1,0,0:0:0:0:
434,293,62503,6,0,P|377:291|344:299,1,83.9999974365235,4|0,0:0|0:0,0:0:0:0:
322,303,62912,1,0,0:0:0:0:
293,312,63049,1,8,0:0:0:0:
28,190,63321,1,0,0:0:0:0:
52,160,63458,1,8,0:0:0:0:
65,124,63594,1,0,0:0:0:0:
396,26,63867,1,8,0:0:0:0:
64,124,64140,1,8,0:0:0:0:
420,312,64412,5,0,0:0:0:0:
436,296,64549,1,0,0:0:0:0:
456,284,64685,1,4,0:0:0:0:
72,324,64958,1,0,0:0:0:0:
440,192,65230,1,8,0:0:0:0:
188,80,65503,1,0,0:0:0:0:
156,56,65640,1,0,0:0:0:0:
124,36,65776,1,0,0:0:0:0:
379,358,66049,5,0,0:0:0:0:
401,317,66185,1,0,0:0:0:0:
431,281,66321,1,8,0:0:0:0:
58,356,66594,1,8,0:0:0:0:
482,147,66867,1,8,0:0:0:0:
155,25,67140,1,0,0:0:0:0:
155,25,67276,1,0,0:0:0:0:
155,25,67412,1,8,0:0:0:0:
72,372,67685,5,8,0:0:0:0:
256,24,67958,1,0,0:0:0:0:
440,372,68230,1,0,0:0:0:0:
4,76,68503,1,8,0:0:0:0:
508,76,68776,1,0,0:0:0:0:
60,296,69049,5,2,0:0:0:0:
68,288,69185,1,0,0:0:0:0:
76,280,69321,1,0,0:0:0:0:
84,272,69458,1,0,0:0:0:0:
136,264,69594,5,2,0:0:0:0:
144,256,69730,1,0,0:0:0:0:
152,248,69866,1,0,0:0:0:0:
160,240,70003,1,0,0:0:0:0:
212,228,70140,5,2,0:0:0:0:
220,220,70276,1,0,0:0:0:0:
228,212,70412,1,0,0:0:0:0:
236,204,70549,1,0,0:0:0:0:
288,196,70685,5,2,0:0:0:0:
296,188,70821,1,0,0:0:0:0:
304,180,70958,1,0,0:0:0:0:
312,172,71094,1,0,0:0:0:0:
364,164,71230,6,0,P|404:132|440:112,1,83.9999974365235,4|0,0:0|0:0,0:0:0:0:
448,108,71640,1,0,0:0:0:0:
464,100,71776,1,8,0:0:0:0:
76,84,72049,5,8,0:0:0:0:
64,44,72185,1,0,0:0:0:0:
32,16,72321,1,0,0:0:0:0:
144,344,72594,1,8,0:0:0:0:
232,8,72867,1,8,0:0:0:0:
472,320,73140,5,0,0:0:0:0:
428,312,73276,1,0,0:0:0:0:
380,312,73412,2,0,P|364:312|320:304,1,41.9999987182618,12|0,0:0|0:0,0:0:0:0:
184,160,73685,2,0,P|192:184|196:212,1,41.9999987182618
358,74,73958,6,0,P|390:70|428:72,1,45.4999979171754,8|0,0:0|0:0,0:0:0:0:
130,308,74230,2,0,P|118:276|116:248,1,45.4999979171754
500,284,74503,2,0,P|472:280|448:280,1,48.9999985046387,8|0,0:0|0:0,0:0:0:0:
0,58,74776,2,0,P|24:52|48:52,1,48.9999985046387,0|0,0:0|0:0,0:0:0:0:
270,384,75049,2,0,P|260:348|240:316,1,48.9999985046387,8|0,0:0|0:0,0:0:0:0:
256,40,75321,5,8,0:0:0:0:
256,40,75458,1,0,0:0:0:0:
256,40,75594,2,0,B|217:88|217:88|270:138|254:251,1,210.000008010865,12|0,0:0|0:0,0:0:0:0:
450,292,76412,1,0,0:0:0:0:
429,328,76549,1,0,0:0:0:0:
398,356,76685,1,8,0:0:0:0:
43,271,76958,1,0,0:0:0:0:
313,31,77230,1,8,0:0:0:0:
104,384,77503,5,0,0:0:0:0:
104,384,77640,1,0,0:0:0:0:
104,384,77776,1,4,0:0:0:0:
512,0,78049,1,8,0:0:0:0:
408,384,78321,5,4,0:0:0:0:
0,0,78594,1,8,0:0:0:0:
256,384,78867,5,4,0:0:0:0:
256,0,79140,1,8,0:0:0:0:
248,40,79276,1,0,0:0:0:0:
260,80,79412,2,0,P|264:132|252:196,2,105.000004005432,0|8|4,0:0|0:0|0:0,0:0:0:0:
88,56,80230,5,0,0:0:0:0:
448,96,80503,1,8,0:0:0:0:
120,312,80776,1,0,0:0:0:0:
120,312,80912,1,0,0:0:0:0:
120,312,81049,1,0,0:0:0:0:
212,20,81321,1,0,0:0:0:0:
236,336,81594,1,8,0:0:0:0:
268,96,81867,5,0,0:0:0:0:
300,100,82003,1,0,0:0:0:0:
328,112,82140,2,0,P|384:116|432:112,1,105.000004005432,4|0,0:0|0:0,0:0:0:0:
48,232,82685,1,8,0:0:0:0:
472,36,82958,1,8,0:0:0:0:
484,60,83094,1,0,0:0:0:0:
496,84,83230,1,0,0:0:0:0:
40,348,83503,5,8,0:0:0:0:
28,324,83639,1,8,0:0:0:0:
16,300,83775,1,0,0:0:0:0:
136,48,84049,1,8,0:0:0:0:
376,336,84321,5,4,0:0:0:0:
152,352,84594,1,0,0:0:0:0:
289,85,84867,1,8,0:0:0:0:
282,342,85140,1,0,0:0:0:0:
312,349,85276,1,0,0:0:0:0:
340,361,85412,1,0,0:0:0:0:
46,164,85685,1,0,0:0:0:0:
398,48,85958,1,8,0:0:0:0:
192,384,86230,5,0,0:0:0:0:
192,384,86367,1,0,0:0:0:0:
192,384,86503,1,4,0:0:0:0:
20,0,86776,5,8,0:0:0:0:
20,0,86912,1,0,0:0:0:0:
20,0,87049,1,4,0:0:0:0:
512,288,87321,5,8,0:0:0:0:
512,288,87458,1,0,0:0:0:0:
512,288,87594,1,4,0:0:0:0:
261,56,87867,5,8,0:0:0:0:
259,76,88140,1,0,0:0:0:0:
256,96,88412,1,8,0:0:0:0:
32,111,88685,6,0,P|62:153|66:214,1,105.000004005432,4|0,0:0|0:0,0:0:0:0:
7,352,89094,1,0,0:0:0:0:
7,352,89230,2,0,P|60:347|115:366,1,105.000004005432,8|0,0:0|0:0,0:0:0:0:
229,268,89640,1,0,0:0:0:0:
229,268,89776,2,0,P|277:249|348:248,1,105.000004005432,0|8,0:0|0:0,0:0:0:0:
458,161,90185,1,0,0:0:0:0:
458,161,90321,2,0,P|455:88|434:44,1,105.000004005432,8|0,0:0|0:0,0:0:0:0:
284,43,90730,5,0,0:0:0:0:
284,43,90867,2,0,B|250:14|265:89|235:18|175:60,1,105.000004005432
406,259,91685,1,8,0:0:0:0:
426,289,91821,1,0,0:0:0:0:
439,323,91958,1,0,0:0:0:0:
320,58,92230,1,8,0:0:0:0:
260,370,92503,2,0,B|240:334|179:367|157:328,1,105.000004005432,0|0,0:0|0:0,0:0:0:0:
48,160,93321,6,0,P|80:172|108:176,1,52.5000020027161
244,180,93594,2,0,P|278:177|305:169,1,52.5000020027161,8|0,0:0|0:0,0:0:0:0:
429,113,93867,2,0,P|458:96|479:77,1,52.5000020027161,0|8,0:0|0:0,0:0:0:0:
256,28,94140,6,0,P|228:16|192:8,2,52.5000020027161,0|0|8,0:0|0:0|0:0,0:0:0:0:
428,112,94685,1,8,0:0:0:0:
256,332,94958,1,8,0:0:0:0:
64,80,95230,5,8,0:0:0:0:
64,320,95503,1,0,0:0:0:0:
64,320,95640,1,0,0:0:0:0:
64,320,95776,1,8,0:0:0:0:
432,216,96049,1,0,0:0:0:0:
448,184,96185,1,0,0:0:0:0:
472,156,96321,1,0,0:0:0:0:
348,192,96594,1,0,0:0:0:0:
416,36,96867,1,8,0:0:0:0:
464,308,97140,1,0,0:0:0:0:
172,140,97412,5,0,0:0:0:0:
464,64,97685,1,0,0:0:0:0:
464,64,97821,1,0,0:0:0:0:
464,64,97958,1,8,0:0:0:0:
40,176,98230,1,0,0:0:0:0:
32,212,98367,1,0,0:0:0:0:
24,248,98503,1,0,0:0:0:0:
120,32,98776,1,0,0:0:0:0:
368,48,99049,2,0,P|396:52|424:52,2,52.5000020027161,8|0|0,0:0|0:0|0:0,0:0:0:0:
380,224,99594,5,4,0:0:0:0:
96,136,99867,1,0,0:0:0:0:
96,136,100003,1,0,0:0:0:0:
96,136,100140,1,8,0:0:0:0:
216,284,100412,1,0,0:0:0:0:
260,168,100685,1,0,0:0:0:0:
308,352,100958,1,0,0:0:0:0:
352,20,101230,2,0,B|368:60|344:92|360:132,1,105.000004005432,8|4,0:0|0:0,0:0:0:0:
164,320,102049,5,0,0:0:0:0:
136,336,102185,1,0,0:0:0:0:
108,348,102321,1,8,0:0:0:0:
252,172,102594,5,0,0:0:0:0:
247,184,102730,5,0,0:0:0:0:
258,182,102867,5,8,0:0:0:0:
244,172,103003,5,0,0:0:0:0:
261,169,103140,5,8,0:0:0:0:
241,179,103276,5,8,0:0:0:0:
253,188,103412,5,0,0:0:0:0:
249,163,103549,5,0,0:0:0:0:
259,175,103685,5,8,0:0:0:0:
237,172,103821,5,0,0:0:0:0:
247,179,103958,5,4,0:0:0:0:
256,192,104094,12,4,112685,0:0:0:0:
