osu file format v14

[General]
AudioFilename: optc.mp3
AudioLeadIn: 0
PreviewTime: 79520
Countdown: 0
SampleSet: Soft
StackLeniency: 0.7
Mode: 0
LetterboxInBreaks: 0
WidescreenStoryboard: 0

[Editor]
Bookmarks: 14599,40793,49520,58247,66974,75702,80065,99702,117156
DistanceSpacing: 1.3
BeatDivisor: 1
GridSize: 32
TimelineZoom: 1.1

[Metadata]
Title:emotional flutter
TitleUnicode:emotional flutter
Artist:Hitomi Harada
ArtistUnicode:原田ひとみ
Creator:Shad0w1and
Version:Pata-Mon's Normal
Source:ef - a fairy tale of the two.
Tags:yuukyuu no tsubasa minori tenmon 天門 latter movie ver. Pata-Mon
BeatmapID:1220280
BeatmapSetID:171062

[Difficulty]
HPDrainRate:3
CircleSize:3.5
OverallDifficulty:3
ApproachRate:4
SliderMultiplier:1.3
SliderTickRate:1

[Events]
//Background and Video events
0,0,"BG.jpg",0,0
Video,0,"optc.flv"
//Break Periods
//Storyboard Layer 0 (Background)
//Storyboard Layer 1 (Fail)
//Storyboard Layer 2 (Pass)
//Storyboard Layer 3 (Foreground)
//Storyboard Sound Samples

[TimingPoints]
14599,545.454545454546,4,2,1,25,1,0
18962,594.059405940594,4,2,1,25,1,0
23714,705.882352941176,4,2,1,25,1,0
32184,717.918037690697,4,2,1,15,1,0
40793,545.454545454546,4,2,1,20,1,0
40793,-100,4,2,1,20,0,0
49520,-100,4,2,1,25,0,0
53883,-100,4,2,1,35,0,0
58247,-100,4,2,1,35,0,0
66974,-100,4,2,1,45,0,0
75702,-100,4,2,1,45,0,0
80065,-100,4,2,1,50,0,1
99702,-100,4,2,1,40,0,0
112929,-100,4,2,1,30,0,0

[Colours]
Combo1 : 174,255,174
Combo2 : 92,239,181
Combo3 : 241,197,148
Combo4 : 255,128,66
Combo5 : 81,168,255
Combo6 : 255,98,176

[HitObjects]
159,197,40793,6,0,P|176:240|176:333,2,130,2|0|0,0:0|0:0|0:0,0:0:0:0:
65,56,42429,2,0,L|164:39,1,65,0|0,0:0|0:0,0:0:0:0:
195,97,42974,2,0,B|295:124|289:75|390:98,1,195,2|0,0:0|0:0,0:0:0:0:
466,127,44065,1,0,0:0:0:0:
345,349,44883,1,0,0:0:0:0:
261,359,45156,6,0,P|193:326|155:187,1,195,2|0,0:0|0:0,0:0:0:0:
176,140,46247,2,0,L|324:148,1,130,0|0,0:0|0:0,0:0:0:0:
423,25,47338,2,0,L|275:17,1,130,2|0,0:0|0:0,0:0:0:0:
189,241,49520,6,0,L|337:233,2,130,2|0|0,0:0|0:0|0:0,0:0:0:0:
104,244,50883,1,0,0:0:0:0:
67,167,51156,2,0,P|64:123|86:49,1,65,0|0,0:0|0:0,0:0:0:0:
131,48,51702,2,0,P|195:59|297:45,1,130,2|0,0:0|0:0,0:0:0:0:
338,23,52520,1,0,0:0:0:0:
416,55,52793,2,0,P|451:57|500:50,2,65,0|0|0,0:0|0:0|0:0,0:0:0:0:
270,139,53883,6,0,P|273:208|315:322,2,130,2|0|0,0:0|0:0|0:0,0:0:0:0:
278,54,55247,1,0,0:0:0:0:
198,25,55520,2,0,P|165:26|97:40,1,65,0|0,0:0|0:0,0:0:0:0:
80,96,56065,2,0,P|64:158|61:223,1,130,2|0,0:0|0:0,0:0:0:0:
104,297,56883,1,0,0:0:0:0:
61,370,57156,1,0,0:0:0:0:
230,370,57702,1,0,0:0:0:0:
350,251,58247,6,0,P|366:200|367:99,1,130,10|8,0:1|0:0,0:0:0:0:
242,13,59338,2,0,L|144:24,1,65,8|0,0:1|0:0,0:0:0:0:
126,87,59883,2,0,L|28:76,1,65,8|0,0:0|0:0,0:0:0:0:
1,20,60429,2,0,P|14:78|11:152,1,130,10|8,0:1|0:0,0:0:0:0:
1,317,61520,2,0,L|13:383,2,65,8|0|8,0:1|0:0|0:0,0:0:0:0:
37,240,62338,1,0,0:0:0:0:
116,268,62611,6,0,P|192:279|276:277,1,130,10|8,0:1|0:0,0:0:0:0:
411,249,63702,2,0,P|397:175|405:76,1,130,8|8,0:1|0:0,0:0:0:0:
399,35,64520,1,0,0:0:0:0:
319,6,64793,2,0,L|214:14,1,65,10|0,0:1|0:0,0:0:0:0:
194,70,65338,2,0,L|89:62,1,65,8|0,0:0|0:0,0:0:0:0:
69,6,65883,2,0,L|-36:14,2,65,8|0|8,0:1|0:0|0:0,0:0:0:0:
117,168,66974,6,0,P|113:233|93:313,1,130,10|8,0:1|0:0,0:0:0:0:
57,370,67793,1,0,0:0:0:0:
141,370,68065,2,0,P|176:368|232:351,1,65,8|0,0:1|0:0,0:0:0:0:
262,298,68611,2,0,P|297:300|353:317,1,65,8|0,0:0|0:0,0:0:0:0:
400,346,69156,2,0,L|501:334,2,97.5,10|0|0,0:1|0:0|0:0,0:0:0:0:
398,261,70247,2,0,L|499:249,2,97.5,8|0|0,0:1|0:0|0:0,0:0:0:0:
326,307,71338,6,0,P|265:308|164:283,1,130,10|8,0:1|0:0,0:0:0:0:
117,266,72156,1,0,0:0:0:0:
40,230,72429,2,0,L|55:71,1,130,8|8,0:1|0:0,0:0:0:0:
63,16,73247,1,0,0:0:0:0:
130,68,73520,2,0,P|194:81|266:73,2,130,10|8|8,0:1|0:0|0:1,0:0:0:0:
63,16,74883,1,0,0:0:0:0:
52,100,75156,2,0,L|44:179,1,65,8|0,0:0|0:0,0:0:0:0:
0,236,75702,6,0,P|35:214|179:223,1,130,14|8,0:1|0:0,0:0:0:0:
198,237,76520,1,0,0:0:0:0:
235,161,76793,2,0,P|270:139|414:148,1,130,8|8,0:1|0:0,0:0:0:0:
433,162,77611,1,0,0:0:0:0:
431,246,77883,2,0,L|429:330,1,65,14|0,0:1|0:0,0:0:0:0:
346,329,78429,2,0,L|344:245,1,65,8|0,0:0|0:0,0:0:0:0:
261,246,78974,2,0,L|259:330,1,65,8|0,0:0|0:0,0:0:0:0:
176,329,79520,2,0,L|174:245,1,65,8|0,0:0|0:0,0:0:0:0:
94,235,80065,6,0,P|55:187|66:91,1,130,14|8,0:1|0:0,0:0:0:0:
97,49,80883,1,0,0:0:0:0:
178,71,81156,2,0,L|327:66,1,130,8|8,0:1|0:0,0:0:0:0:
392,64,81974,1,0,0:0:0:0:
476,60,82247,1,6,0:0:0:0:
423,220,82793,1,8,0:0:0:0:
370,380,83338,2,0,P|295:366|203:362,1,130,8|8,0:1|0:0,0:0:0:0:
157,369,84156,1,0,0:0:0:0:
97,309,84429,6,0,P|114:248|66:168,1,130,6|8,0:0|0:0,0:0:0:0:
21,138,85247,1,0,0:0:0:0:
55,60,85520,2,0,P|105:38|188:22,1,130,8|8,0:1|0:0,0:0:0:0:
263,27,86338,1,0,0:0:0:0:
322,88,86611,2,0,L|316:188,1,65,10|0,0:1|0:0,0:0:0:0:
255,209,87156,2,0,L|261:309,1,65,8|0,0:0|0:0,0:0:0:0:
208,342,87702,2,0,P|154:364|41:329,1,130,8|8,0:1|0:0,0:0:0:0:
22,299,88520,1,0,0:0:0:0:
60,223,88793,6,0,L|73:93,1,130,6|8,0:0|0:0,0:0:0:0:
115,20,89611,1,0,0:0:0:0:
198,6,89883,2,0,P|236:7|267:13,2,65,8|0|8,0:1|0:0|0:0,0:0:0:0:
115,20,90702,1,0,0:0:0:0:
73,94,90974,1,10,0:1:0:0:
206,197,91520,1,12,0:0:0:0:
339,300,92065,2,0,P|368:149|329:81,1,130,8|8,0:1|0:0,0:0:0:0:
292,29,93156,6,0,P|227:41|117:33,1,130,10|8,0:1|0:0,0:0:0:0:
81,20,93974,1,0,0:0:0:0:
26,84,94247,2,0,P|21:113|23:166,2,65,8|0|8,0:1|0:0|0:0,0:0:0:0:
81,20,95065,1,0,0:0:0:0:
163,41,95338,2,0,P|228:41|292:29,2,130,6|8|8,0:0|0:0|0:1,0:0:0:0:
34,151,96974,2,0,L|43:251,1,65,8|0,0:0|0:0,0:0:0:0:
109,264,97520,6,0,P|174:276|284:268,1,130,6|8,0:0|0:0,0:0:0:0:
318,248,98338,1,0,0:0:0:0:
398,275,98611,2,0,P|428:277|489:267,2,65,8|0|8,0:1|0:0|0:0,0:0:0:0:
318,248,99429,1,0,0:0:0:0:
329,164,99702,6,0,P|323:99|278:12,1,130,14|8,0:1|0:0,0:0:0:0:
220,7,100520,1,0,0:0:0:0:
148,52,100793,2,0,L|64:49,1,65,8|0,0:1|0:0,0:0:0:0:
2,25,101338,2,0,L|4:131,1,65,8|0,0:0|0:0,0:0:0:0:
61,152,101883,2,0,P|69:211|62:304,1,130,10|8,0:1|0:0,0:0:0:0:
31,358,102702,1,0,0:0:0:0:
112,381,102974,2,0,P|148:380|203:367,1,65,8|0,0:1|0:0,0:0:0:0:
238,317,103520,2,0,P|274:318|329:331,1,65,8|0,0:0|0:0,0:0:0:0:
371,373,104065,6,0,P|351:223|391:160,1,130,6|8,0:0|0:0,0:0:0:0:
479,148,105156,2,0,P|477:83|452:24,1,130,8|8,0:0|0:0,0:0:0:0:
313,120,106247,2,0,P|162:108|108:56,1,130,6|8,0:0|0:0,0:0:0:0:
47,23,107338,2,0,P|28:179|67:236,1,130,8|8,0:0|0:0,0:0:0:0:
186,120,108429,6,0,P|326:264|184:122,2,520,14|14|14,0:0|0:0|0:0,0:0:0:0:
256,192,112929,12,8,117156,0:0:0:0:
