osu file format v14

[General]
AudioFilename: optc.mp3
AudioLeadIn: 0
PreviewTime: 79520
Countdown: 0
SampleSet: Soft
StackLeniency: 0.9
Mode: 0
LetterboxInBreaks: 0
WidescreenStoryboard: 0

[Editor]
Bookmarks: 14599,40793,49520,58247,66974,75702,80065,99702,117156
DistanceSpacing: 1.3
BeatDivisor: 4
GridSize: 8
TimelineZoom: 1.5

[Metadata]
Title:emotional flutter
TitleUnicode:emotional flutter
Artist:Hitomi Harada
ArtistUnicode:原田ひとみ
Creator:Shad0w1and
Version:Akogare
Source:ef - a fairy tale of the two.
Tags:yuukyuu no tsubasa minori tenmon 天門 latter movie ver. Pata-Mon
BeatmapID:413896
BeatmapSetID:171062

[Difficulty]
HPDrainRate:6
CircleSize:4
OverallDifficulty:5
ApproachRate:6
SliderMultiplier:1.2
SliderTickRate:1

[Events]
//Background and Video events
Video,0,"optc.flv"
0,0,"BG.jpg",0,0
//Break Periods
//Storyboard Layer 0 (Background)
//Storyboard Layer 1 (Fail)
//Storyboard Layer 2 (Pass)
//Storyboard Layer 3 (Foreground)
//Storyboard Sound Samples

[TimingPoints]
14599,545.454545454546,4,2,1,25,1,0
18962,594.059405940594,4,2,1,25,1,0
23714,705.882352941176,4,2,1,25,1,0
31478,-100,4,2,1,5,0,0
32184,717.918037690697,4,2,1,10,1,0
36491,-100,4,2,1,5,0,0
40793,545.454545454546,4,2,1,20,1,0
40793,-83.3333333333333,4,2,1,20,0,0
49520,-76.9230769230769,4,2,1,20,0,0
53883,-76.9230769230769,4,2,1,35,0,0
58247,-66.6666666666667,4,2,1,35,0,0
66974,-62.5,4,2,1,45,0,0
75702,-62.5,4,2,1,45,0,0
80065,-55.5555555555556,4,2,1,50,0,1
99702,-62.5,4,2,1,40,0,0
108565,-62.5,4,2,1,30,0,0

[Colours]
Combo1 : 174,255,174
Combo2 : 92,239,181
Combo3 : 241,197,148
Combo4 : 255,128,66
Combo5 : 81,168,255
Combo6 : 255,98,176

[HitObjects]
178,127,14599,6,0,B|89:116|23:164|23:164|-27:105|-27:105|-6:80|27:67|27:67|30:35|49:6|49:6|89:5|120:41|120:41|88:115|113:197|113:197|85:214|85:214|90:290|90:290|146:255|213:276,1,840,2|0,0:0|0:0,0:0:0:0:
429,120,18962,6,0,B|493:172|529:237|529:237|409:227|357:346|357:346|416:343|474:364|474:364|447:229|331:161|292:135,1,780,2|0,0:0|0:0,0:0:0:0:
256,192,23714,12,0,31478,0:0:0:0:
256,192,32184,12,0,38645,0:0:0:0:
40,166,40793,6,0,P|56:250|66:323,2,143.999995605469,2|0|0,0:0|0:0|0:0,0:0:0:0:
40,166,42429,2,0,P|96:176|137:177,1,71.9999978027345
187,231,42974,6,0,P|246:198|343:175,1,143.999995605469,2|0,0:0|0:0,0:0:0:0:
297,268,43793,1,0,0:0:0:0:
297,268,44065,1,0,0:0:0:0:
40,166,44883,1,0,0:0:0:0:
40,166,45156,6,0,P|65:102|160:82,1,143.999995605469,2|0,0:0|0:0,0:0:0:0:
221,100,45974,1,0,0:0:0:0:
298,153,46248,2,0,P|372:148|457:128,2,143.999995605469,0|0|2,0:0|0:0|0:0,0:0:0:0:
298,153,47883,6,0,B|308:201|330:225|330:225|303:250|255:251|255:251|294:303|283:373,1,287.999991210938
283,372,49520,6,0,P|358:348|449:342,2,155.999992858887,2|0|0,0:0|0:0|0:0,0:0:0:0:
205,306,50883,1,0,0:0:0:0:
298,267,51156,1,0,0:0:0:0:
357,349,51429,1,0,0:0:0:0:
205,306,51702,6,0,P|196:242|189:144,1,155.999992858887,2|0,0:0|0:0,0:0:0:0:
189,150,52520,1,0,0:0:0:0:
110,214,52793,2,0,P|75:208|9:189,2,77.9999964294435
287,116,53883,6,0,P|356:100|398:22,2,155.999992858887,2|0|0,0:0|0:0|0:0,0:0:0:0:
205,54,55247,1,0,0:0:0:0:
299,17,55520,1,0,0:0:0:0:
365,93,55793,1,0,0:0:0:0:
189,150,56065,6,0,P|120:136|24:129,1,155.999992858887,2|0,0:0|0:0,0:0:0:0:
34,129,56883,1,0,0:0:0:0:
186,249,57156,2,0,P|238:234|283:149,1,155.999992858887
283,148,58247,6,0,P|326:155|386:162,2,90.0000034332277,10|0|8,0:1|0:0|0:0,0:0:0:0:
189,150,59065,1,0,0:0:0:0:
189,150,59202,1,0,0:0:0:0:
189,150,59338,2,0,P|198:211|200:262,1,90.0000034332277,8|0,0:1|0:0,0:0:0:0:
75,289,59883,2,0,P|82:251|115:177,1,90.0000034332277,8|0,0:0|0:0,0:0:0:0:
90,105,60429,6,0,P|45:108|0:108,2,90.0000034332277,10|0|8,0:1|0:0|0:0,0:0:0:0:
189,150,61247,1,0,0:0:0:0:
189,150,61383,1,0,0:0:0:0:
189,150,61520,2,0,P|240:140|305:139,2,90.0000034332277,8|0|8,0:1|0:0|0:0,0:0:0:0:
272,232,62338,1,0,0:0:0:0:
373,174,62611,6,0,P|363:122|362:57,2,90.0000034332277,10|0|8,0:1|0:0|0:0,0:0:0:0:
378,290,63429,1,0,0:0:0:0:
378,290,63565,1,0,0:0:0:0:
378,290,63702,2,0,P|428:285|487:293,2,90.0000034332277,8|0|8,0:1|0:0|0:0,0:0:0:0:
287,364,64520,1,0,0:0:0:0:
229,261,64793,6,0,P|186:249|136:245,1,90.0000034332277,10|0,0:1|0:0,0:0:0:0:
206,148,65338,2,0,P|249:135|307:128,1,90.0000034332277,8|0,0:0|0:0,0:0:0:0:
329,130,65747,1,0,0:0:0:0:
329,130,65883,5,8,0:1:0:0:
272,232,66156,1,0,0:0:0:0:
378,290,66429,1,8,0:0:0:0:
206,148,66974,5,10,0:1:0:0:
126,244,67247,2,0,L|85:296,2,48,0|0|8,0:0|0:0|0:0,0:0:0:0:
89,124,67793,1,0,0:0:0:0:
73,89,67929,1,0,0:0:0:0:
59,53,68065,1,8,0:1:0:0:
180,25,68338,2,0,L|244:33,2,48,0|0|8,0:0|0:0|0:0,0:0:0:0:
206,148,68883,1,0,0:0:0:0:
325,183,69156,6,0,P|321:120|303:17,1,144,10|0,0:1|0:0,0:0:0:0:
336,21,69702,1,8,0:0:0:0:
433,97,69974,1,0,0:0:0:0:
445,133,70111,1,0,0:0:0:0:
455,169,70247,2,0,P|426:246|417:286,1,96,8|0,0:1|0:0,0:0:0:0:
392,283,70656,1,0,0:0:0:0:
392,283,70793,1,8,0:0:0:0:
275,240,71065,1,0,0:0:0:0:
157,281,71338,5,10,0:1:0:0:
64,197,71611,2,0,L|-5:199,2,48,0|0|8,0:0|0:0|0:0,0:0:0:0:
173,137,72156,1,0,0:0:0:0:
173,137,72293,1,0,0:0:0:0:
173,137,72429,2,0,P|147:84|131:32,2,96,8|0|8,0:1|0:0|0:0,0:0:0:0:
157,281,73247,1,0,0:0:0:0:
275,240,73520,5,10,0:1:0:0:
392,283,73793,2,0,L|383:330,2,48,0|0|8,0:0|0:0|0:0,0:0:0:0:
378,158,74338,1,0,0:0:0:0:
378,158,74475,1,0,0:0:0:0:
378,158,74611,5,8,0:1:0:0:
275,240,74883,1,0,0:0:0:0:
158,195,75156,1,8,0:0:0:0:
63,276,75429,1,0,0:0:0:0:
214,327,75702,5,14,0:1:0:0:
138,229,75974,1,0,0:0:0:0:
261,203,76247,2,0,L|327:215,3,48,8|0|0|0,0:0|0:0|0:0|0:0,0:0:0:0:
339,189,76793,5,8,0:1:0:0:
455,234,77065,1,0,0:0:0:0:
408,97,77338,1,8,0:0:0:0:
253,98,77611,1,0,0:0:0:0:
253,98,77747,1,0,0:0:0:0:
253,98,77883,6,0,L|187:81,3,48,14|0|0|0,0:1|0:0|0:0|0:0,0:0:0:0:
195,122,78429,2,0,L|129:139,3,48,8|0|0|0,0:0|0:0|0:0|0:0,0:0:0:0:
130,100,78974,2,0,L|64:83,3,48,8|0|0|0,0:0|0:0|0:0|0:0,0:0:0:0:
49,105,79520,2,0,P|62:157|68:206,1,96,8|0,0:0|0:0,0:0:0:0:
193,262,80065,6,0,P|243:246|312:231,2,107.999996704102,14|0|8,0:1|0:0|0:0,0:0:0:0:
195,122,80883,1,0,0:0:0:0:
195,122,81020,1,0,0:0:0:0:
195,122,81156,2,0,P|218:67|275:49,2,107.999996704102,8|0|8,0:1|0:0|0:0,0:0:0:0:
329,162,81974,1,0,0:0:0:0:
329,162,82111,1,0,0:0:0:0:
329,162,82247,6,0,B|336:106|337:51|337:51|361:74|401:90,1,161.999995056153,6|0,0:0|0:0,0:0:0:0:
435,38,82793,2,0,B|455:83|491:117|491:117|451:113|424:133,1,161.999995056153,8|0,0:0|0:0,0:0:0:0:
393,190,83338,2,0,P|438:218|475:167,2,107.999996704102,8|0|8,0:1|0:0|0:0,0:0:0:0:
269,122,84156,1,0,0:0:0:0:
149,195,84429,6,0,P|156:237|182:332,2,107.999996704102,6|0|8,0:0|0:0|0:0,0:0:0:0:
18,142,85247,1,0,0:0:0:0:
18,142,85384,1,0,0:0:0:0:
18,142,85520,2,0,P|31:89|40:36,2,107.999996704102,8|0|8,0:1|0:0|0:0,0:0:0:0:
22,282,86338,1,0,0:0:0:0:
149,195,86611,6,0,B|150:142|123:101|123:101|142:81|185:80,1,161.999995056153,10|0,0:1|0:0,0:0:0:0:
218,81,87156,1,8,0:0:0:0:
294,198,87429,1,0,0:0:0:0:
294,198,87565,1,0,0:0:0:0:
294,198,87702,2,0,P|349:201|411:178,1,107.999996704102,8|0,0:1|0:0,0:0:0:0:
473,198,88111,1,0,0:0:0:0:
473,198,88247,1,8,0:0:0:0:
364,108,88520,1,0,0:0:0:0:
262,205,88793,6,0,P|277:261|288:322,2,107.999996704102,6|0|8,0:0|0:0|0:0,0:0:0:0:
118,210,89611,1,0,0:0:0:0:
118,210,89748,1,0,0:0:0:0:
118,210,89883,2,0,P|55:185|34:139,2,107.999996704102,8|0|8,0:1|0:0|0:0,0:0:0:0:
262,205,90702,1,0,0:0:0:0:
391,258,90975,6,0,B|423:241|449:179|449:179|409:156|364:155,1,161.999995056153,10|0,0:1|0:0,0:0:0:0:
342,207,91520,2,0,P|349:257|346:356,1,107.999996704102,12|0,0:0|0:0,0:0:0:0:
211,340,92065,5,8,0:1:0:0:
262,205,92338,1,0,0:0:0:0:
319,333,92611,1,8,0:0:0:0:
199,259,92883,1,0,0:0:0:0:
312,142,93156,6,0,P|295:77|288:14,2,107.999996704102,10|0|8,0:1|0:0|0:0,0:0:0:0:
430,217,93974,1,0,0:0:0:0:
430,217,94111,1,0,0:0:0:0:
430,217,94247,2,0,P|413:282|406:345,2,107.999996704102,8|0|8,0:1|0:0|0:0,0:0:0:0:
303,278,95065,1,0,0:0:0:0:
303,278,95202,1,0,0:0:0:0:
303,278,95338,6,0,P|244:273|189:261,2,107.999996704102,6|0|8,0:0|0:0|0:0,0:0:0:0:
430,217,96156,1,0,0:0:0:0:
328,120,96429,2,0,P|273:133|211:168,1,107.999996704102,8|0,0:1|0:0,0:0:0:0:
92,109,96974,1,8,0:0:0:0:
204,25,97247,1,0,0:0:0:0:
204,25,97383,1,0,0:0:0:0:
204,25,97520,5,6,0:0:0:0:
227,156,97793,1,0,0:0:0:0:
365,132,98065,1,8,0:0:0:0:
362,88,98202,1,0,0:0:0:0:
358,45,98338,1,0,0:0:0:0:
440,158,98611,5,8,0:1:0:0:
300,166,98883,1,0,0:0:0:0:
348,289,99156,1,8,0:0:0:0:
440,158,99429,1,0,0:0:0:0:
425,285,99702,6,0,P|334:256|226:244,1,192,14|8,0:1|0:0,0:0:0:0:
335,165,100520,2,0,L|353:117,2,48,0|0|8,0:0|0:0|0:1,0:0:0:0:
348,289,101065,1,0,0:0:0:0:
442,207,101338,1,8,0:0:0:0:
312,194,101611,1,0,0:0:0:0:
456,303,101883,6,0,B|484:237|478:177|478:177|444:167|407:170,1,192,10|8,0:1|0:0,0:0:0:0:
348,289,102702,2,0,L|344:348,2,48,0|0|8,0:0|0:0|0:1,0:0:0:0:
279,184,103247,1,0,0:0:0:0:
190,272,103520,1,8,0:0:0:0:
152,263,103656,1,0,0:0:0:0:
114,254,103793,1,0,0:0:0:0:
154,136,104065,5,6,0:0:0:0:
279,184,104338,2,0,L|289:262,2,48,0|0|8,0:0|0:0|0:0,0:0:0:0:
372,100,104883,2,0,L|385:35,2,48,0|0|8,0:0|0:0|0:1,0:0:0:0:
453,195,105429,1,0,0:0:0:0:
453,195,105565,1,0,0:0:0:0:
453,195,105702,2,0,P|435:241|419:311,1,96,8|0,0:0|0:0,0:0:0:0:
285,231,106247,6,0,P|248:226|189:223,1,96,6|0,0:0|0:0,0:0:0:0:
72,268,106793,1,8,0:0:0:0:
115,151,107065,1,0,0:0:0:0:
182,313,107338,1,8,0:1:0:0:
204,320,107474,1,0,0:0:0:0:
227,323,107611,2,0,P|238:353|246:379,2,48,0|0|8,0:0|0:0|0:0,0:0:0:0:
349,296,108156,1,0,0:0:0:0:
349,296,108293,1,0,0:0:0:0:
349,296,108429,5,14,0:1:0:0:
256,192,108565,12,0,117156,0:0:0:0:
