osu file format v9

[General]
AudioFilename: Hitomi Harada, Kaori Mizuhashi, Emiri Katou,Tomomi Isomura - Haretokidokiegao.mp3
AudioLeadIn: 1996
PreviewTime: 44434
Countdown: 0
SampleSet: Soft
StackLeniency: 0.6
Mode: 0
LetterboxInBreaks: 1

[Editor]
DistanceSpacing: 1
BeatDivisor: 2
GridSize: 16

[Metadata]
Title:Hare Tokidoki Egao (TV Size)
Artist:Hitomi Harada
Creator:Breeze
Version:Normal
Source:Baka to Test to Shoukanjuu
Tags:Kaori Mizuhashi Emiri Katou Tomomi Isomura

[Difficulty]
HPDrainRate:4
CircleSize:3
OverallDifficulty:4
ApproachRate:4
SliderMultiplier:1.2
SliderTickRate:2

[Events]
//Background and Video events
0,0,"3.jpg"
Video,350,"00.avi"
//Break Periods
//Storyboard Layer 0 (Background)
//Storyboard Layer 1 (Fail)
//Storyboard Layer 2 (Pass)
//Storyboard Layer 3 (Foreground)
//Storyboard Sound Samples
//Background Colour Transformations
3,100,0,0,0

[TimingPoints]
-1020,454.545454545455,4,2,1,30,1,0
2389,-100,4,2,1,5,0,0
3298,-100,4,2,1,30,0,0
6025,-100,4,2,1,5,0,0
6934,-100,4,2,1,30,0,0
7503,-100,4,2,1,50,0,0
21139,-100,4,2,2,50,0,0
21366,-100,4,2,1,50,0,0
22957,-100,4,2,2,50,0,0
23185,-100,4,2,1,50,0,0
23866,-100,4,2,2,50,0,0
24094,-100,4,2,1,50,0,0
28412,-100,4,2,2,50,0,0
28639,-100,4,2,1,50,0,0
32048,-100,4,2,2,50,0,0
32275,-100,4,2,1,50,0,0
33298,-200,4,2,1,40,0,0
36707,-100,4,2,1,50,0,0
44434,-100,4,2,1,50,0,1
44662,-100,4,2,1,60,0,0
46594,-100,4,2,2,60,0,0
46821,-100,4,2,1,60,0,0
50230,-100,4,2,2,60,0,0
50457,-100,4,2,1,60,0,0
53866,-100,4,2,2,60,0,0
54094,-100,4,2,1,60,0,0
58980,-100,4,2,1,60,0,1
59094,-100,4,2,1,60,0,0
68412,-100,4,2,2,60,0,0
68639,-100,4,2,1,60,0,0
73525,-200,4,2,1,40,0,0
76551,-100,4,2,1,45,0,0
76780,-100,4,2,1,50,0,0
77007,-100,4,2,1,55,0,0
77234,-100,4,2,1,60,0,0
78980,-100,4,2,1,45,0,0
79775,-100,4,2,1,60,0,0
84434,-100,4,2,1,60,0,1
84548,-100,4,2,1,5,0,0

[Colours]
Combo1 : 253,163,253
Combo2 : 254,170,108
Combo3 : 141,174,241
Combo4 : 171,253,181
SliderBorder : 255,255,255

[HitObjects]
256,320,343,1,2
160,256,798,2,0,B|160:128,1,120,4|0
192,80,1480,2,0,B|352:80,1,120,4|0
352,128,2161,2,0,B|352:272,2,120,4|0|0
256,192,3525,5,2
256,192,3980,1,2
192,96,4434,2,0,B|48:96,1,120,4|0
16,128,5116,2,0,B|16:256,1,120,4|0
64,288,5798,2,0,B|224:288,2,120,4|0|0
144,192,7161,6,0,B|304:192,1,120,0|8
320,288,8070,2,0,B|368:352|480:352,1,120,4|8
400,224,8980,2,0,B|448:272|544:240,1,120,2|8
464,144,9889,2,0,B|512:80|464:0,1,120,2|8
368,80,10798,2,0,B|320:32|224:32,1,120,2|8
144,48,11707,5,4
32,192,12389,1,4
144,336,13070,1,4
315,260,15343,6,0,B|395:260|459:244,1,120,4|8
435,132,16252,2,0,B|395:121|315:121,1,120,0|8
224,192,17161,2,0,B|48:192,1,120,0|8
48,192,17843,1,0
224,192,18525,1,8
464,192,19434,5,8
352,144,19889,2,0,B|293:193|411:191|352:240,1,120,0|8
240,224,20798,2,0,B|176:288|80:192|176:112|240:160,1,240
352,192,22161,1,8
352,80,22616,6,0,B|240:144|240:0|128:80,2,240
400,192,24889,1,8
336,192,25116,2,0,B|128:192,1,180,0|8
400,192,26707,5,8
384,304,27161,1,0
272,336,27616,1,8
224,304,27843,2,0,B|112:304|80:192|112:64|224:64,1,360
384,128,29889,5,4
480,192,30343,1,8
384,256,30798,1,0
288,192,31252,1,8
240,80,31707,2,0,B|128:96|128:272|240:304,1,300
336,320,33298,6,0,B|400:320|384:256|384:256|448:256|480:176,1,210,2|0
471,195,35116,2,0,B|447:134|383:134|383:134|399:70|335:70,1,210,2|0
224,48,37161,6,0,B|96:48,1,120,4|8
192,128,38070,2,0,B|64:128,1,120,0|8
64,256,38980,2,0,B|224:256,1,120,0|8
80,336,39889,2,0,B|256:336,1,120,0|8
256,192,40570,12,8,42161
224,192,42616,6,8,B|336:192,3,60
400,192,43752,1,4
256,96,44434,5,4
176,192,44889,1,8
256,288,45343,1,0
336,192,45798,1,8
256,96,46252,2,0,B|144:96|80:16,2,180,0|0|8
336,192,48070,5,0
256,288,48525,1,8
176,192,48980,1,0
256,96,49434,1,8
336,192,49889,2,0,B|432:240|432:368,2,180,0|0|8
256,288,51707,5,4
176,192,52161,1,8
256,96,52616,1,0
336,192,53070,1,8
256,288,53525,2,0,B|144:288|80:352,2,180,0|0|8
336,192,55343,5,0
256,96,55798,1,8
176,192,56252,1,0
256,288,56707,1,8
256,288,57161,1,0
464,192,58980,6,0,B|464:128|416:64,1,120,4|8
384,192,59889,2,0,B|384:256|336:304,1,120,0|8
304,192,60798,2,0,B|304:128|256:80,2,120,0|8|0
48,192,62616,6,0,B|48:256|96:320,1,120,0|8
128,192,63525,2,0,B|128:128|176:80,1,120,0|8
208,192,64434,2,0,B|208:256|256:304,2,120,0|8|0
448,192,66252,5,4
400,80,66707,1,8
368,192,67161,1,0
320,80,67616,1,8
288,192,68070,2,0,B|240:80|240:80|192:192,1,240
160,80,69434,1,8
112,192,69889,6,0,B|160:336,1,120,0|8
208,336,70570,2,0,B|352:336,1,120
384,304,71252,2,0,B|432:176,1,120,8|0
256,32,73525,5,4
144,80,74434,1,0
96,192,75343,2,0,B|112:288|192:336,1,150,0|8
224,336,76707,1,8
288,336,76934,1,8
352,336,77161,6,0,B|480:304,1,120,4|0
496,256,77843,2,0,B|496:128,1,120,4|0
480,80,78525,2,0,B|336:32,1,120,4|0
256,16,79434,1,2
144,48,79889,5,2
144,48,80343,1,2
144,48,80798,2,0,B|8:72,1,120,4|0
17,128,81479,2,0,B|17:272,1,120,4|0
31,306,82161,2,0,B|175:338,1,120,4|0
256,288,83070,1,0
256,176,83525,6,0,B|256:96,4,60,2|2|2|2|4
256,192,84661,12,0,88070
