osu file format v9

[General]
AudioFilename: Hitomi Harada, Kaori Mizuhashi, Emiri Katou,Tomomi Isomura - Haretokidokiegao.mp3
AudioLeadIn: 1996
PreviewTime: 44434
Countdown: 0
SampleSet: Soft
StackLeniency: 0.6
Mode: 0
LetterboxInBreaks: 1

[Editor]
DistanceSpacing: 1.2
BeatDivisor: 4
GridSize: 8

[Metadata]
Title:Hare Tokidoki Egao (TV Size)
Artist:Hitomi Harada
Creator:Breeze
Version:Insane
Source:Baka to Test to Shoukanjuu
Tags:Kaori Mizuhashi Emiri Katou Tomomi Isomura

[Difficulty]
HPDrainRate:6
CircleSize:4
OverallDifficulty:7
ApproachRate:7
SliderMultiplier:1.8
SliderTickRate:2

[Events]
//Background and Video events
0,0,"2.jpg"
Video,350,"00.avi"
//Break Periods
//Storyboard Layer 0 (Background)
//Storyboard Layer 1 (Fail)
//Storyboard Layer 2 (Pass)
//Storyboard Layer 3 (Foreground)
//Storyboard Sound Samples
//Background Colour Transformations
3,100,0,0,0

[TimingPoints]
-1020,454.545454545455,4,2,1,30,1,0
2389,-100,4,2,1,5,0,0
3298,-100,4,2,1,30,0,0
6025,-100,4,2,1,5,0,0
6480,-200,4,2,1,30,0,0
7503,-200,4,2,1,35,0,0
7616,-200,4,2,1,30,0,0
7843,-100,4,2,1,50,0,0
14094,-100,4,2,1,40,0,0
14321,-100,4,2,1,50,0,0
14548,-100,4,2,1,40,0,0
14775,-100,4,2,1,30,0,0
15230,-100,4,2,1,50,0,0
33071,-100,4,2,1,40,0,0
33298,-200,4,2,1,40,0,0
36821,-100,4,2,1,50,0,0
41025,-100,4,2,1,40,0,0
41935,-100,4,2,1,50,0,0
44434,-100,4,2,1,50,0,1
44662,-100,4,2,1,60,0,0
46593,-100,4,2,2,60,0,0
46820,-100,4,2,1,60,0,0
58071,-100,4,2,1,50,0,0
58525,-100,4,2,1,40,0,0
58639,-100,4,2,1,45,0,0
58753,-100,4,2,1,40,0,0
58866,-100,4,2,1,45,0,0
58980,-100,4,2,1,60,0,1
59207,-100,4,2,1,60,0,0
73639,-200,4,2,1,35,0,0
76821,-100,4,2,1,60,0,0
78980,-100,4,2,1,45,0,0
79775,-100,4,2,1,35,0,0
80685,-100,4,2,1,60,0,0
82616,-100,4,2,1,40,0,0
83412,-100,4,2,1,60,0,0
84434,-100,4,2,1,60,0,1
84662,-100,4,2,1,5,0,0

[Colours]
Combo1 : 253,163,253
Combo2 : 254,170,108
Combo3 : 141,174,241
Combo4 : 171,253,181
SliderBorder : 255,255,255

[HitObjects]
256,192,343,1,2
256,176,457,1,2
256,160,570,1,2
256,144,684,1,2
256,128,798,6,0,B|344:160|448:128,1,180,4|0
344,64,1480,2,0,B|255:34|167:66,1,180,4|0
256,128,2161,2,0,B|166:155|78:123,2,180,4|0|0
456,192,3525,5,2
352,192,3752,1,2
248,192,3980,1,2
144,192,4207,1,2
200,96,4434,2,0,B|144:16|40:32,1,180,4|0
80,136,5116,2,0,B|0:128|0:256|80:248,1,180,4|0
42,352,5798,2,0,B|144:368|200:288,1,180,4|0
232,192,6480,6,0,L|240:184|248:192|256:200|264:192|272:184|280:192|288:200|296:192|304:184|312:192|320:200|328:192|336:184|344:192|352:200|360:192,1,180,0|8
384,192,7502,1,8
416,192,7616,1,8
208,120,8070,6,0,B|112:120|24:80,1,180,4|8
224,192,8980,2,0,B|32:192,1,180,2|8
208,264,9889,2,0,B|112:264|24:304,1,180,2|8
224,192,10798,2,0,B|424:192,1,180,2|8
224,80,11707,6,0,B|136:80|56:144,1,180,4|0
58,242,12389,2,0,B|136:304|224:304,1,180,4|0
336,304,13070,2,0,B|456:304|464:192|456:64|336:64,1,360,4|8
256,136,14207,1,8
256,248,14434,5,8
256,136,14661,1,8
256,248,14889,1,8
256,136,15116,1,8
160,192,15343,5,4
160,88,15570,1,0
56,88,15798,1,8
56,192,16025,1,0
56,304,16252,1,0
160,304,16480,1,0
256,248,16707,1,8
256,136,16934,1,0
360,136,17161,2,0,B|440:136|440:248|360:248,1,180,0|8
256,248,17843,2,0,B|179:248|179:136|259:136,1,180
256,136,18525,1,8
464,192,18980,1,0
464,192,19434,5,8
256,136,19889,1,0
256,240,20116,1,0
160,192,20343,1,8
160,192,20570,1,0
64,136,20798,2,0,B|0:128|0:272|64:264,1,180,0|8
62,264,21480,1,0
160,192,21707,2,0,B|352:192,2,180,0|8|0
160,192,22843,5,0
200,88,23070,1,8
200,88,23298,1,0
232,192,23525,1,0
232,192,23752,1,0
264,296,23980,1,8
264,296,24207,1,0
304,192,24434,1,0
304,192,24661,1,0
336,88,24889,1,8
336,88,25116,2,0,B|440:88|472:192,1,180
470,186,25798,1,8
41,186,26252,1,0
256,80,26707,6,0,B|256:288,1,180,8|0
200,352,27389,1,0
304,352,27616,1,8
256,260,27843,2,0,B|256:112,2,90
360,264,28525,5,8
360,152,28752,1,2
144,152,29207,1,2
144,264,29434,1,8
144,264,29548,1,8
256,80,29889,5,4
256,296,30343,1,8
176,112,30798,1,0
344,264,31252,1,8
128,192,31707,1,0
392,192,32161,1,8
176,264,32616,1,0
344,120,33070,1,8
328,72,33298,6,0,B|256:40|176:72,1,135,2|8
176,112,34207,2,0,B|104:144|40:112,1,135,0|8
176,264,35116,6,0,B|248:296|328:264,1,135,2|8
328,224,36025,2,0,B|400:192|464:224,1,135,0|8
475,220,36820,1,8
344,64,37161,6,0,B|296:40|256:64,1,90,4|0
168,120,37616,2,0,B|216:144|264:120,1,90,8|0
344,184,38070,2,0,B|296:160|256:184,1,90
168,240,38525,2,0,B|216:264|264:240,1,90,8|0
344,312,38979,2,0,B|256:360|160:312,1,180,0|8
64,312,39661,5,0
448,312,40116,1,0
256,16,40570,2,0,B|256:144,1,90,0|4
256,320,41252,5,8
144,136,41707,1,8
360,136,42161,1,8
360,136,42275,1,8
208,184,42616,6,8,B|208:288,1,90
296,200,43070,2,8,B|296:96,1,90
55,204,43752,2,0,B|55:332|199:332,1,180,4|8
180,331,44320,1,8
199,332,44434,6,0,B|376:336,1,135,4|0
384,328,44889,2,0,B|456:280|472:184,1,135,8|0
464,168,45343,2,0,B|456:96|384:63,1,135
336,48,45798,2,0,B|184:48,1,135,8|0
160,80,46252,2,0,B|40:192|160:320,1,270
240,248,47161,1,0
240,144,47389,1,0
240,144,47502,1,0
240,144,47616,1,8
432,248,48070,6,0,B|384:352|256:352,1,180,0|8
336,248,48752,2,0,B|256:296|160:288,1,180
240,208,49434,1,8
336,160,49661,1,0
240,208,49889,2,0,B|152:224|56:208,2,180,0|8|0
240,104,51025,1,0
240,104,51252,1,8
240,320,51707,6,0,B|304:344|376:320,1,135,4|0
424,304,52161,2,0,B|456:304|488:288|512:248|512:216,1,135,8|0
512,168,52616,2,0,B|512:137|488:97|456:81|424:81,1,135,0|0
376,64,53070,2,0,B|312:40|240:56,1,135,8|0
216,104,53525,2,0,B|216:320,1,180,0|8
152,192,54207,1,0
88,280,54434,2,0,B|88:88,1,180,0|8
432,136,55343,6,0,B|384:32|256:32,1,180,0|8
336,136,56025,2,0,B|256:88|160:96,1,180
240,176,56707,1,8
336,224,56934,1,0
240,176,57161,5,2
136,176,57389,1,2
240,176,57616,1,2
208,280,57843,1,4
416,208,58298,5,8
416,192,58411,1,8
416,176,58525,1,8
416,160,58639,1,8
416,144,58752,1,8
416,128,58866,1,8
416,112,58979,5,4
96,112,59434,1,8
480,192,59889,5,0
40,192,60343,1,8
416,280,60798,5,0
96,280,61252,1,8
256,48,61707,5,0
256,336,62161,1,8
336,152,62616,6,0,B|256:72|176:152,1,180,0|8
104,228,63298,2,0,B|24:228|24:348|104:348,1,180
204,348,63979,1,8
312,348,64207,1,0
420,344,64434,2,0,B|488:344|488:224|412:224,1,180,0|8
413,224,65116,1,0
333,154,65343,2,0,B|255:76|175:156,1,180,0|8
40,192,66252,6,0,B|96:104|32:16,1,180,4|8
112,192,67161,2,0,B|170:272|114:360,1,180,0|8
184,192,68070,2,0,B|239:104|180:24,1,180,0|8
256,192,68979,2,0,B|314:272|258:360,1,180,0|8
472,192,69889,6,0,B|413:272|468:359,1,180,0|8
376,360,70570,2,0,B|320:272|379:192,1,180
424,112,71252,1,8
360,48,71479,1,0
296,112,71707,1,2
232,48,71934,1,2
168,112,72161,1,10
80,112,72389,2,0,B|24:128|24:240|72:264,1,180,4|0
160,264,73070,1,8
224,328,73298,1,0
288,264,73525,5,4
400,192,74207,2,8,B|344:192,1,45,2|2
264,192,74889,1,8
288,120,75343,5,0
400,192,76025,2,2,B|352:192,1,45
264,192,76479,5,0
176,192,76707,1,0
88,192,76934,1,0
72,192,77048,1,0
56,192,77161,6,0,B|-40:120|56:40,1,180,4|0
104,120,77843,2,0,B|184:192|112:280,1,180,4|0
56,192,78525,2,0,B|-40:264|56:344,1,180,4|0
160,336,79207,5,2
256,280,79434,1,8
352,336,79661,1,8
352,232,79889,5,8
352,248,80002,1,8
352,264,80116,1,10
352,152,80343,1,8
352,136,80457,1,8
352,120,80570,1,10
456,192,80798,6,0,B|552:264|456:344,1,180,4|0
408,264,81479,2,0,B|328:192|400:104,1,180,4|0
456,192,82161,2,0,B|552:120|456:40,1,180,4|0
360,80,82843,5,8
256,104,83070,1,8
152,80,83298,1,8
152,192,83525,5,2
256,280,83752,1,2
360,192,83979,1,2
256,104,84207,1,2
256,192,84434,5,4
256,192,84548,12,0,88070
