osu file format v12

[General]
AudioFilename: Hitler - Gangnam Style () Parody PSY - GANGNAM STYLE (Hitler Remix) With Lyrics.mp3
AudioLeadIn: 0
PreviewTime: -1
Countdown: 0
SampleSet: Soft
StackLeniency: 0.7
Mode: 0
LetterboxInBreaks: 1

[Editor]
DistanceSpacing: 0.6
BeatDivisor: 8
GridSize: 8

[Metadata]
Title:Gangnam Style
TitleUnicode:Gangnam Style
Artist:Hitler
ArtistUnicode:Hitler
Creator:Branxord
Version:Calmed Hitler
Source:
Tags:
BeatmapID:225729
BeatmapSetID:80593

[Difficulty]
HPDrainRate:3
CircleSize:4
OverallDifficulty:5
ApproachRate:4
SliderMultiplier:1.3
SliderTickRate:2

[Events]
//Background and Video events
0,0,"pink-hitler.jpg",1,1
//Break Periods
2,7722,9384
2,11358,12110
2,64536,66659
2,97263,99379
//Storyboard Layer 0 (Background)
//Storyboard Layer 1 (Fail)
//Storyboard Layer 2 (Pass)
//Storyboard Layer 3 (Foreground)
//Storyboard Sound Samples
//Background Colour Transformations
3,100,163,162,255

[TimingPoints]
700,454.544535473612,4,1,0,70,1,0
44263,-76.9230769230769,4,2,0,70,0,0
68001,-76.9230769230769,4,2,0,70,0,1
97190,-76.9230769230769,4,2,0,70,0,0

[Colours]
Combo1 : 250,18,41
Combo2 : 107,136,137
Combo3 : 87,157,119

[HitObjects]
232,328,6613,2,0,L|232:256,2,65
304,328,7522,1,0,0:0:0:0:
48,240,10704,6,0,P|104:208|160:240,1,130
320,224,13430,6,0,L|384:200,2,65
288,192,14112,1,0,0:0:0:0:
264,144,14339,2,0,L|320:88,4,65
168,184,15703,1,8,0:0:0:0:
168,280,16157,2,0,B|224:320|272:224|296:280,1,130,0|8,0:0|0:0,0:0:0:0:
376,272,17066,1,0,0:0:0:0:
352,184,17520,1,8,0:0:0:0:
280,128,17975,2,0,L|216:128,1,65,0|0,0:0|0:0,0:0:0:0:
168,128,18429,1,8,0:0:0:0:
168,128,18657,1,0,0:0:0:0:
168,128,18884,1,0,0:0:0:0:
232,184,19338,6,0,P|256:232|256:312,1,130,8|0,0:0|0:0,0:0:0:0:
120,320,20247,2,0,P|96:272|96:192,1,130,8|0,0:0|0:0,0:0:0:0:
192,200,21156,2,0,P|216:152|216:72,1,130,8|0,0:0|0:0,0:0:0:0:
320,112,22065,2,0,L|400:112,2,65
264,112,22747,1,0,0:0:0:0:
200,112,22974,2,0,P|160:112|128:192,3,130,8|0|8|0,0:0|0:0|0:0|0:0,0:0:0:0:
168,312,24792,5,0,0:0:0:0:
168,312,25019,2,0,P|232:336|240:336,1,65
408,232,25701,1,0,0:0:0:0:
376,208,25928,1,0,0:0:0:0:
336,192,26155,1,0,0:0:0:0:
296,184,26382,2,0,P|248:176|224:160,1,65,0|8,0:0|0:0,0:0:0:0:
136,112,27291,5,0,0:0:0:0:
136,144,27518,2,0,L|136:216,2,65
216,144,28314,1,0,0:0:0:0:
296,144,28655,2,0,L|296:224,2,65
296,104,29336,1,2,0:0:0:0:
296,104,29563,1,0,0:0:0:0:
352,104,29791,2,0,P|408:144|424:200,1,130,0|10,0:0|0:0,0:0:0:0:
280,192,30700,2,0,P|224:232|208:288,1,130,0|10,0:0|0:0,0:0:0:0:
360,272,31608,2,0,P|416:312|432:368,1,130,0|14,0:0|0:0,0:0:0:0:
344,336,32517,6,0,L|208:336,1,130,0|10,0:0|0:0,0:0:0:0:
144,296,33426,1,0,0:0:0:0:
96,224,33881,1,10,0:0:0:0:
32,168,34335,2,0,P|56:112|120:80,3,130,0|10|0|10,0:0|0:0|0:0|0:0,0:0:0:0:
208,80,36153,1,0,0:0:0:0:
304,80,36607,2,0,P|368:120|400:176,1,130,10|0,0:0|0:0,0:0:0:0:
400,208,37289,1,0,0:0:0:0:
400,256,37516,2,0,P|384:304|312:320,3,130,0|10|0|10,0:0|0:0|0:0|0:0,0:0:0:0:
216,280,39334,5,0,0:0:0:0:
104,280,39789,1,0,0:0:0:0:
104,280,40016,1,0,0:0:0:0:
104,280,40243,2,0,L|104:144,1,130
200,120,41152,1,8,0:0:0:0:
288,120,41606,2,0,P|336:152|360:224,3,130,0|8|0|8,0:0|0:0|0:0|0:0,0:0:0:0:
360,296,43424,1,10,0:0:0:0:
360,296,43879,1,10,0:0:0:0:
280,296,44336,6,8,L|280:128,1,168.999992263794
208,88,45242,2,8,L|208:256,1,168.999992263794
120,296,46154,2,8,L|120:128,1,168.999992263794
40,80,47060,2,8,L|40:248,1,168.999992263794
160,304,47969,2,8,P|256:328|320:296,1,168.999992263794
160,200,48878,2,8,P|256:176|328:208,1,168.999992263794
328,112,49787,2,8,L|152:112,1,168.999992263794
56,112,50702,1,8,0:0:0:0:
56,112,50930,1,0,0:0:0:0:
56,160,51157,2,8,L|56:328,1,168.999992263794
168,336,52066,5,8,0:0:0:0:
272,336,52520,2,8,L|272:168,1,168.999992263794
344,88,53429,1,8,0:0:0:0:
432,168,53884,2,8,L|432:344,1,168.999992263794
344,344,54792,1,8,0:0:0:0:
256,312,55247,2,8,P|216:288|168:168,1,168.999992263794
232,136,56156,1,8,0:0:0:0:
232,136,56610,1,8,0:0:0:0:
296,224,57065,2,8,P|352:144|360:64,1,168.999992263794
448,80,57974,1,8,0:0:0:0:
448,80,58428,5,12,0:0:0:0:
400,176,58883,2,8,L|400:264,1,84.4999961318971
344,224,59337,2,8,L|344:136,1,84.4999961318971
288,184,59791,2,8,L|288:272,1,84.4999961318971
232,224,60246,2,8,L|232:136,1,84.4999961318971
176,184,60700,2,8,L|176:288,1,84.4999961318971
120,224,61154,2,8,L|120:128,1,84.4999961318971
64,184,61608,2,8,L|64:272,1,84.4999961318971
64,320,62063,2,8,L|168:320,1,84.4999961318971
208,320,62518,2,0,L|256:320,16,42.2499980659486
256,320,67979,6,0,P|296:272|304:168,1,168.999992263794,0|8,0:0|0:0,0:0:0:0:
200,192,68888,1,0,0:0:0:0:
96,208,69342,2,0,P|56:256|48:368,2,168.999992263794,8|0|8,0:0|0:0|0:0,0:0:0:0:
160,280,70705,2,14,P|208:256|232:128,1,190.124991296769,14|10,0:0|0:0,0:0:0:0:
96,88,71614,1,2,0:0:0:0:
200,88,72296,1,0,0:0:0:0:
344,88,72745,2,0,L|432:88,2,84.4999961318971
256,152,73887,1,0,0:0:0:0:
256,224,74341,1,0,0:0:0:0:
256,296,74795,1,0,0:0:0:0:
112,296,75250,6,0,B|40:280|40:224|40:224|72:224|72:224|360:136|32:56,1,506.999976791383
80,152,77068,1,0,0:0:0:0:
104,240,77522,1,0,0:0:0:0:
192,288,77977,1,0,0:0:0:0:
224,288,78204,1,0,0:0:0:0:
264,288,78431,2,0,L|432:288,1,168.999992263794
440,136,79567,6,0,L|264:136,1,168.999992263794
240,136,80249,1,0,0:0:0:0:
96,136,80703,2,12,L|96:304,3,168.999992263794
256,192,82521,12,0,84339,0:0:0:0:
400,256,84793,6,0,L|400:160,2,84.4999961318971
312,256,85702,2,0,L|144:256,1,168.999992263794
56,256,86839,1,10,0:0:0:0:
56,168,87293,2,0,B|96:120|96:120|96:104|96:104|112:128|112:128|176:88,1,168.999992263794
424,104,88429,6,0,L|424:200,1,84.4999961318971
424,264,88884,1,8,0:0:0:0:
336,264,89338,2,0,B|272:280|272:280|272:264|272:264|264:280|264:280|264:264|232:288|192:264,3,168.999992263794,8|0|8|0,0:0|0:0|0:0|0:0,0:0:0:0:
128,264,91156,1,8,0:0:0:0:
48,232,91610,2,0,P|48:128|88:64,1,168.999992263794,0|8,0:0|0:0,0:0:0:0:
192,80,92519,1,0,0:0:0:0:
296,80,92974,2,0,P|360:160|368:240,1,168.999992263794,8|0,0:0|0:0,0:0:0:0:
288,336,94110,1,0,0:0:0:0:
208,312,94564,1,0,0:0:0:0:
176,312,94791,2,0,P|120:304|120:200,1,168.999992263794
144,152,95700,6,0,L|328:152,1,168.999992263794
312,56,96609,2,14,L|128:56,1,168.999992263794,0|4,0:0|0:0,0:0:0:0:
376,312,100699,6,0,L|376:208,1,84.4999961318971
328,232,101154,1,0,0:0:0:0:
240,232,101608,1,0,0:0:0:0:
240,104,102063,5,6,0:0:0:0:
