osu file format v7

[General]
AudioFilename: Sweet Bitter Beauty Song.mp3
AudioLeadIn: 0
PreviewTime: 72676
Countdown: 0
SampleSet: Soft
StackLeniency: 0.7
Mode: 0
LetterboxInBreaks: 0

[Editor]
Bookmarks: 23052,37273,44943,58240,72680,88258,108766,131097,144860,161552,179142,198089,213428,224259
DistanceSpacing: 0.899999976158142
BeatDivisor: 4
GridSize: 8

[Metadata]
Title:Sweet Bitter Beauty Song (Full Ver.)
Artist:Hisaka Yoko
Creator:S i R i R u
Version:Normal
Source:K-ON!
Tags:anime akiyama mio

[Difficulty]
HPDrainRate:2
CircleSize:4
OverallDifficulty:5
SliderMultiplier:0.999999999999999
SliderTickRate:1

[Events]
//Background and Video events
0,0,"BG.jpg"
//Break Periods
2,55737,57495
2,89120,94036
2,109872,115690
2,127917,130126
2,161301,162608
2,167617,180653
2,184759,186968
2,191977,197795
//Storyboard Layer 0 (Background)
//Storyboard Layer 1 (Fail)
//Storyboard Layer 2 (Pass)
//Storyboard Layer 3 (Foreground)
//Storyboard Sound Samples
//Background Colour Transformations
3,100,255,255,255

[TimingPoints]
1402,451.127819548872,4,2,1,100,1,0
59146,-100,4,2,1,51,0,0
60950,-100,4,2,1,100,0,0
66364,-100,4,2,1,51,0,0
68168,-100,4,2,1,100,0,0
73582,-100,4,2,2,100,0,1
86214,-100,4,2,2,50,0,0
88920,-100,4,2,2,100,0,0
94785,-100,4,2,1,100,0,0
145762,-100,4,2,2,100,0,1
159296,-100,4,2,2,49,0,0
161101,-100,4,2,2,100,0,0
181627,-100,4,2,2,71,0,0
183093,-100,4,2,2,100,0,0
198995,-100,4,2,2,100,0,1
209823,-100,4,2,2,100,0,0
213432,-100,4,2,2,100,0,1
226063,-100,4,2,2,51,0,0

[Colours]
Combo1 : 236,36,36
Combo2 : 0,202,0
Combo3 : 12,150,252
Combo4 : 255,128,0

[HitObjects]
256,192,8620,2,0,B|256:304,4,99.9999999999999,4|8|0|8|0
344,192,10875,5,8
192,104,11777,1,8
136,176,12229,1,0
136,224,12454,1,0
136,272,12680,1,8
208,328,13131,2,0,B|288:328|352:280|352:192,1,200
264,216,14484,2,0,B|264:96,2,99.9999999999999,8|0|8
168,152,15838,6,0,B|48:152,4,99.9999999999999,4|8|0|8|0
168,240,18093,6,8,B|232:248|256:168,2,99.9999999999999,8|0|8
80,240,19447,1,0
80,240,19672,1,0
80,240,19898,1,8
80,152,20349,2,0,B|80:104|144:24|232:40,2,200
168,152,22605,1,8
216,152,22830,1,0
264,152,23056,1,4
400,272,23958,5,0
224,272,24860,2,0,B|72:272,2,150,0|0|8
280,200,26665,1,4
424,88,27567,1,0
280,200,28469,2,0,B|280:256|240:296|168:296,2,150,0|0|8
192,200,30274,6,0,B|72:200,2,99.9999999999999,4|0|0
256,136,31627,1,0
344,136,32078,1,0
344,136,32304,1,0
416,192,32755,1,0
416,280,33206,1,0
416,280,33432,2,0,B|464:336,2,50,8|0|4
328,280,34334,6,0,B|264:280,1,50,0|2
256,192,35011,2,0,B|192:192,1,50,0|2
184,104,35687,1,0
184,104,35913,2,2,B|112:104,2,50
320,104,37041,1,8
256,192,37492,6,0,B|256:296,4,99.9999999999999,4|8|0|8|0
168,192,39747,5,8
208,104,40198,1,0
304,104,40650,1,8
344,192,41101,1,0
344,192,41552,1,8
104,248,42454,5,8
256,344,43356,1,8
408,248,44259,1,8
408,160,44710,6,0,B|352:160|352:96|256:96,1,150,4|0
232,96,45612,1,0
184,96,45838,2,0,B|64:96,2,99.9999999999999
184,184,47191,1,0
256,240,47642,2,0,B|208:288,2,50,0|8|0
304,240,48319,6,0,B|424:240,4,99.9999999999999,4|0|0|0|0
256,112,50800,1,0
168,112,51251,1,0
120,112,51477,1,8
88,144,51702,1,0
88,192,51928,5,4
264,192,52830,1,0
440,192,53732,1,0
440,192,53958,1,0
408,280,54409,1,0
320,280,54860,1,0
272,280,55086,1,8
224,280,55311,1,0
176,280,55537,1,4
256,192,58695,5,8
256,192,59146,12,0,60950
256,192,61401,5,8
256,192,61853,1,0
168,192,62304,2,0,B|168:248|224:280,2,99.9999999999999,8|4|8
168,104,63657,1,0
168,104,63883,1,0
256,80,64334,1,0
304,80,64559,2,0,B|352:32,3,50,0|0|8|0
432,48,65687,1,0
432,48,65913,1,8
256,192,66364,12,4,68168
256,192,68620,5,8
168,192,69071,1,0
128,176,69296,1,0
88,192,69522,1,8
128,272,69973,2,0,B|136:336|208:336,1,99.9999999999999,0|8
280,336,70875,2,0,B|496:336,1,200
480,336,72229,1,8
368,88,73582,5,4
296,144,74033,1,8
224,88,74484,1,0
176,88,74710,2,0,B|64:88,2,99.9999999999999
224,88,75838,1,8
224,176,76289,1,0
224,224,76514,1,0
312,192,76965,5,0
360,192,77191,2,0,B|424:192|440:256,2,99.9999999999999,4|8|0
360,192,78544,1,8
360,192,78995,1,0
272,192,79447,2,0,B|232:224,2,50,8|0|0
320,264,80349,1,8
320,312,80574,1,0
288,344,80800,1,4
200,344,81251,6,0,B|88:344,1,99.9999999999999,8|0
136,264,82153,2,0,B|248:264,1,99.9999999999999,8|0
200,184,83056,2,0,B|88:184,2,99.9999999999999,8|0|8
256,112,84409,5,4
344,112,84860,1,8
408,176,85311,2,0,B|408:248,2,50,0|0|8
256,192,86214,12,4,88920
256,320,95236,5,4
216,240,95687,1,0
256,160,96138,1,0
296,80,96589,1,0
256,160,97041,1,0
256,160,97266,1,0
256,160,97717,1,0
256,248,98168,1,0
256,248,98394,2,0,B|256:304,2,50,8|0|4
168,248,99296,6,0,B|104:248|80:312,2,99.9999999999999
256,248,100650,2,0,B|432:248,1,150
464,184,101777,1,0
464,184,102003,2,0,B|464:112,2,50,8|0|4
376,184,102905,6,0,B|320:184|288:112,1,99.9999999999999
376,96,103808,2,0,B|352:48|288:40,1,99.9999999999999
160,40,104935,1,0
160,128,105386,1,0
160,176,105612,2,0,B|160:240,2,50,8|0|4
248,152,106514,5,0
296,152,106740,1,2
328,240,107191,1,0
376,240,107417,1,2
352,328,107868,1,0
264,328,108319,1,2
216,328,108544,1,2
152,264,108995,1,0
152,264,109221,1,8
152,176,109672,1,4
256,72,116890,6,0,B|256:128|312:160,1,99.9999999999999,4|0
368,88,117792,2,0,B|472:88,2,99.9999999999999
320,88,118920,2,0,B|200:88,1,99.9999999999999
152,152,119823,1,0
152,200,120048,1,8
120,232,120274,1,0
120,280,120499,1,4
120,320,120725,1,0
168,320,120950,6,0,B|256:328|256:240|360:240,1,200
344,328,122304,1,0
344,328,122529,1,0
424,280,122980,1,0
424,192,123432,1,0
424,144,123657,2,0,B|424:80|488:56,2,99.9999999999999,8|4|0
336,144,125011,6,0,B|224:144,1,99.9999999999999
144,144,125913,1,0
144,144,126138,1,0
144,144,126589,1,0
144,232,127041,1,0
144,232,127266,1,8
224,192,127717,1,4
256,56,131326,6,0,B|256:168,1,99.9999999999999,4|8
256,256,132229,1,0
208,344,132680,1,8
304,344,133131,1,0
304,344,133582,1,8
392,344,134033,5,0
392,256,134484,1,8
448,184,134935,1,4
448,136,135161,1,2
360,136,135612,5,0
312,136,135838,1,0
264,136,136063,1,2
176,136,136514,2,0,B|176:192|232:224,2,99.9999999999999,0|2|0
176,48,137868,2,0,B|232:48,2,50,0|8|0
128,48,138544,6,0,B|64:48|48:112,1,99.9999999999999,4|8
128,144,139447,2,0,B|128:264,2,99.9999999999999,0|8|0
208,176,140800,2,0,B|208:64,2,99.9999999999999,8|0|8
256,248,142153,1,0
256,336,142605,1,8
256,248,143056,1,0
256,160,143507,1,8
256,160,143958,2,0,B|256:88,2,50,0|0|8
256,64,145762,5,4
176,112,146214,2,8,B|192:176|320:184|344:96,2,200
88,112,148469,1,0
88,160,148695,1,0
88,208,148920,1,8
160,264,149371,6,0,B|224:264|240:320,2,99.9999999999999,4|8|0
96,328,150725,2,0,B|32:320|32:256,2,99.9999999999999,8|0|8
184,328,152078,2,0,B|296:328,1,99.9999999999999,0|8
256,240,152980,6,0,B|256:120,2,99.9999999999999,4|8|0
256,240,154334,2,0,B|256:352,2,99.9999999999999,8|0|8
232,152,155687,1,0
280,152,155913,1,2
256,288,156589,5,4
256,288,157041,1,8
336,232,157492,1,0
304,144,157943,1,8
208,144,158394,1,0
176,232,158845,1,8
256,192,159296,12,4,161101
256,192,163808,5,4
256,104,164259,1,8
256,192,164710,2,0,B|256:296,2,99.9999999999999,0|8|0
168,168,166063,1,8
256,192,166514,1,0
344,168,166965,1,8
256,192,167417,1,4
216,64,181853,6,0,B|168:64,1,25,8|0
296,64,182191,2,0,B|344:64,1,25,8|0
256,128,182529,2,0,B|256:160,1,25,8|0
256,232,182868,5,8
256,232,182980,1,0
256,312,183206,2,0,B|256:360,8,25,8|0|0|0|0|0|0|0|0
256,312,184559,1,4
256,192,188168,5,4
168,296,188845,1,0
120,296,189071,1,2
72,296,189296,1,2
104,208,189747,2,0,B|104:152,2,50,0|2|2
152,208,190424,2,0,B|264:208,1,99.9999999999999,8|0
328,152,191326,1,8
400,208,191777,1,4
64,192,198995,5,4
64,104,199447,2,0,B|128:96|176:128|200:184,1,150,8|0
192,256,200574,2,0,B|192:320,1,50
280,304,201251,2,0,B|280:192,2,99.9999999999999,8|0|8
360,264,202605,5,4
448,264,203056,1,8
400,184,203507,1,0
448,104,203958,1,8
360,104,204409,2,0,B|256:104,1,99.9999999999999,0|8
272,192,205311,2,0,B|152:192,1,99.9999999999999,0|8
80,184,206214,6,0,B|80:240,2,50,4|0|8
80,96,207116,2,0,B|88:40|152:32,1,99.9999999999999,0|8
208,96,208018,2,0,B|320:96,2,99.9999999999999,0|8|0
208,184,209371,1,8
208,272,209823,6,0,B|208:344,2,50,4|0|8
296,272,210725,2,0,B|296:200,2,50,0|0|8
344,272,211401,1,2
376,192,211853,1,0
376,144,212078,1,2
256,80,212529,5,0
256,80,212755,1,0
256,80,212980,1,8
256,80,213432,2,0,B|256:200,3,99.9999999999999,4|8|0|8
176,224,215236,2,0,B|192:288|328:296|344:208,2,200,0|0|4
256,176,217492,2,0,B|240:112|104:104|88:192,2,200,8|8|8
256,264,219747,1,0
256,264,220198,2,0,B|256:336,2,50,8|0|4
200,192,221101,5,8
112,192,221552,1,0
112,192,221777,1,2
152,272,222229,1,0
200,272,222454,1,2
288,272,222905,1,8
376,272,223356,1,0
376,272,223582,1,2
416,192,224033,1,0
416,192,224259,1,4
328,192,224710,2,0,B|216:192,2,99.9999999999999,8|0|8
256,192,226063,12,4,227868
