osu file format v7

[General]
AudioFilename: Sweet Bitter Beauty Song.mp3
AudioLeadIn: 0
PreviewTime: 72676
Countdown: 0
SampleSet: Soft
StackLeniency: 0.7
Mode: 0
LetterboxInBreaks: 0

[Editor]
Bookmarks: 23052,37273,44943,58240,68620,72680,88258,108766,131097,144860,161552,179142,198089,213428,224259,244108
DistanceSpacing: 0.899999976158142
BeatDivisor: 4
GridSize: 8

[Metadata]
Title:Sweet Bitter Beauty Song (Full Ver.)
Artist:Hisaka Yoko
Creator:S i R i R u
Version:Insane
Source:K-ON!
Tags:anime akiyama mio

[Difficulty]
HPDrainRate:5
CircleSize:5
OverallDifficulty:8
SliderMultiplier:1.8
SliderTickRate:1

[Events]
//Background and Video events
0,0,"BG.jpg"
//Break Periods
2,131526,137343
2,167617,170276
2,172353,173885
2,176188,178847
2,184759,197569
2,228068,234336
//Storyboard Layer 0 (Background)
//Storyboard Layer 1 (Fail)
//Storyboard Layer 2 (Pass)
//Storyboard Layer 3 (Foreground)
//Storyboard Sound Samples
//Background Colour Transformations
3,100,255,255,255

[TimingPoints]
1402,451.127819548872,4,2,1,100,1,0
8620,-100,4,2,1,100,0,1
9071,-100,4,2,1,100,0,0
36364,-200,4,2,1,100,0,0
37492,-100,4,2,1,100,0,1
37943,-100,4,2,1,100,0,0
59146,-100,4,2,1,100,0,1
59597,-100,4,2,1,100,0,0
68168,-100,4,2,1,100,0,0
73582,-100,4,2,2,100,0,1
88018,-100,4,2,2,100,0,0
95123,-100,4,2,1,100,0,0
109672,-100,4,2,1,100,0,1
110123,-100,4,2,1,100,0,0
145762,-100,4,2,2,100,0,1
159973,-100,4,2,2,51,0,0
161101,-100,4,2,2,100,0,0
166627,-100,4,2,2,70,0,0
167304,-100,4,2,2,100,0,0
181853,-100,4,2,2,70,0,0
184108,-200,4,2,2,70,0,0
184559,-100,4,2,2,100,0,1
185011,-100,4,2,2,100,0,0
198995,-100,4,2,2,100,0,1
209823,-100,4,2,2,100,0,0
213432,-100,4,2,2,100,0,1
224259,-100,4,2,2,100,0,0
235311,-100,4,2,2,70,0,0
242304,-100,4,2,2,50,0,0
244108,-100,4,2,2,70,0,0
248620,-100,4,2,2,50,0,0
249522,-100,4,2,2,70,0,0
258544,-100,4,2,2,0,0,0

[Colours]
Combo1 : 236,36,36
Combo2 : 0,202,0
Combo3 : 12,150,252
Combo4 : 255,128,0

[HitObjects]
256,192,8620,2,0,B|440:192,2,180,4|8|0
184,232,9747,1,0
184,152,9973,1,8
112,192,10198,1,0
112,192,10311,1,0
112,192,10424,2,0,B|112:296,2,90,0|0|8
112,112,11101,1,0
168,56,11326,1,0
248,56,11552,2,0,B|352:56,2,90,0|8|0
248,136,12229,5,0
248,176,12341,1,0
248,216,12454,1,0
248,296,12680,1,8
320,256,12905,2,0,B|448:256,2,90,0|2|0
320,256,13582,1,8
248,296,13808,2,0,B|184:296,2,45,0|0|2
248,216,14259,1,0
176,176,14484,1,8
176,96,14710,5,0
208,64,14823,1,0
248,56,14935,1,0
288,64,15048,1,0
320,96,15161,1,0
320,176,15386,1,8
400,176,15612,1,0
400,176,15838,6,0,B|408:232|368:296|280:288,1,180,4|8
208,288,16514,1,0
128,288,16740,2,0,B|64:288,2,45
168,216,17191,1,8
168,216,17304,1,0
168,216,17417,1,0
168,136,17642,2,0,B|168:40,2,90,0|0|8
248,112,18319,1,0
328,112,18544,1,0
384,232,18770,5,0
312,192,18995,1,8
312,272,19221,1,0
240,232,19447,1,0
240,312,19672,1,0
200,312,19785,1,0
160,312,19898,1,8
80,312,20123,1,0
120,240,20349,6,0,B|120:136,2,90,2|0|8
200,240,21026,1,0
200,240,21138,1,0
200,240,21251,2,0,B|296:240,1,90,2|0
248,168,21702,2,0,B|344:168,1,90,8|0
392,104,22153,5,0
360,80,22266,1,0
320,72,22379,1,0
280,72,22492,1,0
240,72,22605,1,8
160,72,22830,1,0
80,72,23056,6,0,B|80:264,1,180,4|2
144,304,23732,1,0
144,224,23958,2,0,B|248:224,1,90
288,280,24409,1,0
432,208,24860,1,0
400,136,25086,2,0,B|344:136|328:192,1,90,0|0
328,264,25537,2,0,B|328:312,2,45,0|0|2
248,264,25988,1,0
168,264,26214,6,0,B|168:72,1,180,8|4
104,40,26890,1,0
104,40,27116,1,2
104,120,27341,2,0,B|104:224,1,90
48,272,27792,1,0
48,352,28018,1,0
208,312,28469,1,0
288,312,28695,2,0,B|344:312|408:272|400:176,1,180
320,200,29371,1,2
272,136,29597,2,0,B|168:136,2,90,0|8|0
320,200,30274,5,4
160,200,30725,1,2
160,280,30950,2,0,B|120:280|88:248|88:216,2,90
208,344,31627,2,0,B|304:344,1,90
344,280,32078,1,0
424,304,32304,2,0,B|424:120,1,180
424,40,32980,1,2
352,80,33206,2,0,B|320:40,2,45,0|0|8
352,160,33657,1,0
272,160,33883,6,0,B|200:160|192:88|72:96,1,180,4|2
104,176,34559,2,0,B|176:176|184:256|304:240,1,180,0|2
312,240,35123,1,0
352,240,35236,1,2
416,288,35462,1,0
448,56,35687,5,4
320,168,35913,1,0
192,56,36138,1,4
64,176,36364,2,0,B|168:176,1,90,2|0
192,176,36928,1,0
232,176,37041,1,8
120,296,37492,6,0,B|128:360|256:368|256:272,1,180,4|8
256,216,38168,1,0
256,216,38394,2,0,B|256:112,2,90,0|0|8
320,272,39071,1,0
320,312,39183,1,0
320,352,39296,1,0
240,304,39522,6,0,B|128:304,1,90,0|8
120,232,39973,2,0,B|216:232,2,90
80,160,40650,2,0,B|208:160,1,90,8|0
248,160,41101,5,0
320,128,41326,1,0
344,160,41439,1,0
320,192,41552,1,8
248,160,41777,2,0,B|216:112,2,45,0|0|2
216,232,42229,1,0
216,232,42454,2,0,B|216:344,1,90,8|0
216,322,42792,1,0
216,322,42905,1,2
144,288,43131,5,0
288,288,43356,1,8
144,288,43582,1,0
288,288,43808,5,0
328,272,43920,1,0
360,248,44033,1,0
384,216,44146,1,0
392,176,44259,1,8
392,96,44484,1,0
312,96,44710,5,4
152,96,45161,1,2
96,152,45386,1,0
152,216,45612,2,0,B|256:216,1,90
208,288,46063,2,0,B|320:288,1,90
376,288,46514,5,0
376,208,46740,2,0,B|416:208|448:232|456:272,1,90
376,288,47191,2,0,B|376:352,2,45,0|0|2
376,208,47642,1,0
304,248,47868,2,0,B|304:128,1,90,8|0
304,120,48206,1,0
304,80,48319,1,4
232,48,48544,5,0
152,48,48770,1,2
192,120,48995,2,0,B|192:176|136:192,2,90
152,48,49672,1,0
72,48,49898,2,0,B|72:104,2,45
152,48,50349,6,0,B|256:48,1,90
320,48,50800,2,0,B|384:48|448:96|440:192,1,180,2|0
384,216,51477,1,8
440,272,51702,1,0
384,328,51928,1,4
232,272,52379,5,2
152,272,52605,1,0
192,200,52830,2,0,B|192:136|112:120,1,90
112,200,53281,1,0
32,200,53507,2,0,B|32:264,2,45
72,128,53958,6,0,B|72:24,1,90
144,80,54409,2,0,B|328:80,1,180,2|0
368,80,54973,1,0
408,80,55086,1,8
392,160,55311,2,0,B|448:160|464:216,1,90,0|4
328,296,55988,5,0
272,240,56214,1,2
120,296,56665,1,0
56,240,56890,1,2
56,136,57116,5,0
144,64,57341,1,0
256,32,57567,1,0
368,64,57792,1,2
456,136,58018,1,2
256,160,58469,5,0
256,200,58582,1,0
256,240,58695,1,8
256,280,58808,1,0
256,320,58920,1,0
136,280,59146,6,0,B|136:96,2,180,4|8|0
256,192,60274,1,0
376,104,60499,2,0,B|376:288,2,180,8|0|8
296,120,61627,5,0
256,48,61853,2,0,B|160:48,1,90
88,48,62304,1,8
56,72,62417,1,0
40,112,62529,1,0
40,200,62755,5,4
120,200,62980,2,0,B|152:248,2,45,0|0|8
80,272,63432,1,0
120,200,63657,2,0,B|232:200,2,90,2|0|8
160,128,64334,2,0,B|160:72,2,45,0|0|2
240,128,64785,2,0,B|336:128,1,90,0|8
288,200,65236,2,0,B|384:248,1,90
304,288,65687,2,0,B|376:360,1,90,0|8
304,120,66364,6,0,B|320:48|440:56|440:144,1,180,4|8
440,200,67041,1,0
440,280,67266,2,0,B|424:352|304:344|304:256,1,180,0|8
304,200,67943,1,0
224,200,68168,6,0,B|152:200|152:288|48:264,1,180,0|8
64,184,68845,1,0
64,104,69071,2,0,B|152:40,1,90
136,144,69522,2,0,B|256:144,1,90,8|0
64,184,69973,2,0,B|64:296,2,90,0|0|8
136,144,70650,1,0
208,184,70875,2,0,B|264:184|288:240,2,90,0|0|8
136,224,71552,1,0
112,304,71777,5,0
256,344,72003,1,0
400,304,72229,1,8
256,64,72905,5,2
216,136,73131,1,2
296,136,73356,2,0,B|344:136,2,45,0|0|4
296,216,73808,1,0
296,216,74033,2,0,B|112:216,1,180,8|0
112,136,74710,2,0,B|56:144|40:192,1,90,0|8
40,352,75161,6,0,B|136:352,1,90
168,280,75612,2,0,B|56:280,1,90,0|8
120,208,76063,2,0,B|224:208,1,90
288,208,76514,1,0
328,208,76627,1,0
368,208,76740,1,8
368,128,76965,6,0,B|424:128|448:192,1,90,0|4
368,208,77417,2,0,B|368:304,2,90,0|8|0
368,128,78093,1,0
288,128,78319,1,0
224,80,78544,1,8
160,128,78770,1,0
80,128,78995,2,0,B|64:192|128:256|208:224,1,180,0|8
272,232,79672,2,0,B|296:272,2,45
189,229,80123,2,0,B|189:343,2,90,0|8|0
232,160,80800,6,0,B|232:88|288:32|384:40,1,180,4|8
344,128,81477,2,0,B|344:224,1,90
280,264,81928,1,0
280,304,82041,1,0
280,344,82153,1,8
200,320,82379,2,0,B|128:312|128:192|224:192,1,180
288,192,83056,2,0,B|392:192,1,90,8|0
408,112,83507,1,0
408,112,83732,1,0
328,112,83958,1,8
368,40,84183,5,0
368,40,84296,1,0
368,40,84409,1,4
288,40,84635,1,0
216,72,84860,1,8
144,40,85086,1,0
72,72,85311,1,0
144,112,85537,1,0
216,152,85762,1,8
144,184,85988,6,0,B|144:288,1,90
104,344,86439,1,0
144,360,86552,1,0
184,344,86665,1,8
256,312,86890,2,0,B|368:312,2,90
296,240,87567,1,8
296,160,87792,1,0
296,160,88018,1,4
104,160,88469,5,8
48,224,88695,1,0
48,224,88808,1,0
48,224,88920,1,0
104,280,89146,2,0,B|200:280|176:352|280:344,1,180,2|0
304,344,89710,1,0
344,344,89823,1,2
328,264,90048,5,0
392,216,90274,1,8
352,144,90499,1,0
352,64,90725,1,0
280,104,90950,1,0
200,104,91176,1,8
128,144,91402,1,0
64,192,91627,5,4
40,224,91740,1,0
64,256,91853,1,0
144,256,92078,1,8
224,256,92304,1,0
304,256,92529,2,0,B|360:256|384:304,2,90,2|0|8
264,184,93206,6,0,B|288:144,2,45,0|0|2
184,184,93657,1,0
120,128,93883,1,8
56,184,94108,1,0
120,272,94334,5,0
160,288,94447,1,0
200,272,94559,1,0
240,288,94672,1,0
280,272,94785,1,8
360,272,95011,1,0
360,192,95236,5,4
256,64,95687,1,2
176,64,95913,2,0,B|176:120|240:144,1,90
256,64,96364,1,0
336,64,96589,2,0,B|392:64|464:112|456:208,1,180
376,176,97266,2,0,B|376:280,1,90
312,320,97717,5,0
240,288,97943,1,2
160,264,98168,1,0
128,288,98281,1,0
160,312,98394,1,8
240,288,98620,1,0
240,208,98845,6,0,B|240:112,1,90,4|0
240,40,99296,2,0,B|304:40|320:112,1,90,2|0
312,168,99747,2,0,B|312:360,2,180
384,208,100875,2,0,B|384:264|432:304,1,90
464,208,101326,2,2,B|464:152|416:112,1,90,0|2
352,128,101777,1,0
312,128,101890,1,0
272,128,102003,2,0,B|160:128,2,90,8|0|4
168,256,102905,6,0,B|72:256,1,90,2|0
168,336,103356,2,0,B|232:336|248:264,1,90
168,256,103808,2,0,B|168:144,2,90
248,256,104484,2,0,B|328:264|320:176|408:176,1,180
400,256,105161,1,2
400,336,105386,2,0,B|448:360,2,45,0|0|8
400,336,105838,1,0
320,336,106063,6,0,B|136:336,1,180,4|2
152,256,106740,2,0,B|56:256,2,90
216,200,107417,1,2
296,200,107642,1,0
256,128,107868,5,4
256,304,108093,1,0
256,128,108319,1,2
256,304,108544,1,4
256,40,108995,6,0,B|304:40,2,45,0|0|8
176,56,109447,1,0
120,120,109672,6,0,B|112:184|168:256|256:240,1,180,4|8
224,160,110349,2,0,B|320:160,2,90
224,242,111026,1,8
224,320,111251,2,0,B|160:320,2,45
256,248,111702,2,0,B|312:248|328:296,2,90,0|8|0
176,248,112379,2,0,B|120:248|104:200,2,90,0|0|8
256,248,113056,1,0
312,192,113281,5,4
352,192,113394,1,0
392,192,113507,1,0
448,128,113732,1,8
448,48,113958,6,0,B|392:48|376:96,1,90,0|2
312,48,114409,2,0,B|256:48|240:96,1,90,0|8
176,48,114860,2,0,B|120:48|104:96,1,90,0|2
104,176,115311,2,0,B|104:240,2,45,0|0|8
184,200,115762,1,0
184,280,115988,5,0
208,312,116101,1,0
248,328,116214,1,0
288,336,116326,1,0
328,336,116439,1,8
368,328,116552,1,0
408,312,116665,1,0
432,280,116777,1,0
432,280,116890,6,0,B|432:80,2,180,4|2|0
360,248,118018,2,0,B|256:248,1,90
312,176,118469,2,0,B|312:64,1,90
248,32,118920,1,0
112,128,119371,1,0
112,208,119597,1,2
184,168,119823,1,0
112,128,120048,6,0,B|24:64,2,90,8|0|4
160,64,120725,2,0,B|248:120,1,90,0|2
304,152,121176,2,0,B|384:200,1,90
320,248,121627,2,0,B|400:296,2,90
240,248,122304,5,0
240,248,122529,1,0
88,304,122980,2,0,B|56:352,2,45,0|0|2
88,224,123432,2,0,B|56:176,2,45,0|0|8
160,264,123883,1,0
240,264,124108,6,0,B|312:272|368:208|352:144,1,180,4|2
272,160,124785,2,0,B|272:48,1,90
200,104,125236,2,0,B|200:208,1,90
128,160,125687,2,0,B|128:64,1,90
56,104,126138,1,0
56,264,126589,5,0
56,304,126702,1,0
96,288,126815,1,2
176,288,127041,1,0
256,288,127266,1,8
320,240,127492,5,0
384,288,127717,1,4
320,136,128168,1,0
384,184,128394,1,2
320,32,128845,1,0
384,80,129071,1,2
320,136,129296,5,0
240,136,129522,2,0,B|120:136,1,90
96,192,129973,1,2
96,272,130198,1,2
256,272,130650,1,0
208,336,130875,1,8
208,336,131326,1,4
256,192,138093,5,8
56,144,138544,6,0,B|72:72|192:80|192:168,1,180,4|8
256,192,139221,1,0
456,240,139447,2,0,B|440:312|320:304|320:216,1,180,0|8
256,192,140123,1,0
256,112,140349,6,0,B|176:64,1,90
256,272,140800,2,0,B|336:320,1,90,8|0
336,80,141251,6,0,B|256:32,1,90
176,304,141702,2,0,B|256:352,1,90,8|0
253,350,142153,1,4
296,192,142605,5,8
376,192,142830,1,0
376,272,143056,2,0,B|432:272|456:208,1,90
376,192,143507,2,0,B|376:96,1,90,8|0
312,56,143958,1,2
312,56,144183,1,2
312,56,144409,1,8
112,192,145086,5,0
168,248,145311,1,2
112,304,145537,1,2
168,248,145762,2,0,B|376:248,1,180,4|8
360,168,146439,2,0,B|464:168,1,90
424,96,146890,2,0,B|320:96,1,90,0|8
288,168,147341,5,0
248,96,147567,2,0,B|48:96,1,180,0|8
112,168,148244,1,0
112,248,148469,1,0
184,208,148695,1,0
184,208,148808,1,0
184,208,148920,1,8
264,232,149146,1,0
336,272,149371,6,0,B|392:272|416:320,2,90,4|0|8
264,232,150048,2,0,B|136:232,1,90
136,160,150499,2,0,B|96:120,2,45,0|0|8
216,160,150950,1,0
176,88,151176,1,0
176,88,151402,1,0
256,88,151627,2,0,B|344:88|416:144|424:200,1,180,8|0
352,216,152304,1,0
384,240,152417,1,0
416,264,152529,1,8
416,344,152755,1,0
336,328,152980,6,4,B|208:328,1,90,4|0
264,248,153432,2,0,B|168:248,2,90,8|0|0
264,168,154108,1,0
208,104,154334,2,0,B|104:104,1,90,8|0
72,32,154785,5,0
32,104,155011,1,0
72,176,155236,1,8
72,256,155462,1,0
144,296,155687,1,0
224,296,155913,1,0
256,272,156026,1,0
288,296,156138,1,8
400,280,156364,6,0,B|448:280,2,45,0|0|4
400,200,156815,2,0,B|400:96,1,90,0|8
328,72,157266,2,0,B|296:136,2,45,0|0|0
256,40,157717,1,0
256,40,157943,1,8
328,72,158168,2,0,B|392:72|456:128|448:216,1,180,0|0
368,184,158845,2,0,B|264:184,1,90,8|0
256,264,159296,2,0,B|136:264,2,90,2|0|8
256,192,159973,12,2,161101
256,192,161326,5,0
96,192,161777,1,0
96,192,161890,1,0
96,192,162003,2,0,B|96:288,1,90,2|0
176,192,162454,2,0,B|176:80,2,90,8|0|0
224,256,163131,1,0
304,256,163356,1,8
368,312,163582,1,0
432,256,163808,5,4
432,256,163920,1,0
432,256,164033,1,0
432,176,164259,1,8
352,176,164484,2,0,B|352:120|408:96,2,90,0|2|0
272,176,165161,1,8
312,248,165386,2,0,B|376:336,1,90,0|2
256,304,165838,2,0,B|200:224,1,90,0|8
144,176,166289,5,0
144,136,166401,1,0
144,96,166514,1,0
216,56,166740,1,8
280,104,166965,1,8
344,56,167191,1,8
408,104,167417,1,4
256,96,171026,5,4
192,344,171702,1,0
256,296,171928,1,2
320,344,172153,1,0
256,40,174635,6,0,B|256:232,1,180,4|0
328,248,175311,1,0
296,320,175537,1,2
216,320,175762,1,0
184,248,175988,1,0
144,184,179597,5,2
216,144,179823,1,0
296,144,180048,1,2
368,184,180274,1,0
256,216,180499,6,0,B|256:320,2,90,2|0|2
256,136,181176,1,0
256,56,181401,1,2
256,56,181627,1,0
120,192,181853,6,0,B|96:248,1,45,8|0
200,240,182191,2,0,B|200:296,1,45,8|0
304,240,182529,2,0,B|304:296,1,45,8|0
384,192,182868,2,0,B|408:248,1,45,8|0
256,40,183206,5,0
256,64,183319,1,0
256,88,183432,1,0
256,112,183544,1,0
256,136,183657,1,0
256,160,183770,1,0
256,184,183883,1,0
256,208,183995,1,0
256,232,184108,2,0,B|256:328,1,90,0|4
168,72,198319,5,2
344,72,198544,1,8
256,232,198770,6,0,B|256:296,2,45,0|0|4
256,152,199221,1,0
296,152,199334,1,0
328,176,199447,2,0,B|328:280,1,90,8|0
400,304,199898,1,0
400,224,200123,1,0
400,184,200236,1,0
400,144,200349,1,8
352,80,200574,1,0
352,80,200800,2,0,B|168:80,1,180,0|8
96,104,201477,1,0
136,176,201702,2,0,B|256:176,2,90,0|0|8
88,248,202379,5,0
88,248,202605,2,0,B|80:304|136:360|216:344,1,180,4|8
208,264,203281,1,0
280,304,203507,1,0
280,304,203732,1,0
352,264,203958,1,8
352,264,204183,1,0
280,224,204409,6,0,B|264:168|336:80|416:111,1,180,0|8
384,184,205086,1,0
384,184,205311,1,0
240,104,205762,1,8
240,104,205988,1,0
192,168,206214,6,0,B|120:152|128:32|216:32,1,180,4|8
240,104,206890,1,0
320,104,207116,1,0
392,144,207341,2,0,B|424:96,2,45,0|0|8
392,224,207792,2,0,B|400:288|320:344|256:336,1,180
192,336,208469,2,0,B|80:336,1,90,8|0
140,264,208920,2,0,B|156:192|276:200|276:288,1,180,0|8
273,266,209597,1,0
376,192,209823,6,0,B|480:192,2,90,4|0|8
376,192,210499,2,0,B|376:96,1,90
296,128,210950,1,0
256,56,211176,1,8
184,88,211401,2,0,B|152:48,2,45
152,160,211853,2,0,B|152:264,1,90,0|8
224,216,212304,2,0,B|224:320,2,90
224,216,212980,1,8
240,120,213206,5,0
280,104,213319,1,0
320,120,213432,2,0,B|456:280,1,180,4|8
408,328,214108,2,0,B|344:256,1,90
312,328,214559,2,0,B|248:248,1,90,0|8
200,320,215011,2,0,B|128:304|136:184|224:184,1,180,0|0
280,184,215687,1,8
240,112,215913,1,0
280,40,216138,1,0
360,40,216364,1,0
400,40,216477,1,0
360,40,216589,1,8
400,192,216815,5,0
400,192,217041,2,0,B|400:256|344:320|248:320,1,180,4|8
288,232,217717,2,0,B|288:136,1,90
216,104,218168,1,0
144,136,218394,1,8
144,216,218620,1,0
144,256,218732,1,0
144,296,218845,6,0,B|32:296,2,90,0|0|8
224,272,219522,2,0,B|328:272,2,90
224,192,220198,1,8
296,232,220424,1,0
352,168,220650,6,0,B|424:192|416:304|328:304,1,180,4|8
296,232,221326,1,0
216,232,221552,1,0
136,232,221777,2,0,B|112:280,2,45,0|0|8
136,232,222229,1,0
136,232,222454,6,0,B|64:208|72:96|160:96,1,180,0|8
192,168,223131,1,0
232,96,223356,1,0
312,96,223582,2,0,B|336:48,2,45,0|0|8
312,168,224033,6,0,B|312:288,1,90,0|4
392,248,224484,2,0,B|392:304|328:336,1,90,0|8
272,320,224935,2,0,B|152:320,1,90
144,320,225274,2,0,B|96:320,1,45
40,264,225612,1,8
40,184,225838,5,0
72,168,225950,1,0
104,184,226063,1,4
176,144,226289,1,0
248,184,226514,1,8
320,144,226740,2,0,B|368:104,2,45,0|0|2
392,184,227191,1,0
392,184,227417,1,10
256,312,227642,5,0
256,312,227868,1,4
256,104,235086,6,0,B|256:328,4,180,4|8|0|8|0
328,144,237116,5,0
184,184,237341,1,8
328,240,237567,1,0
184,280,237792,1,0
328,240,238018,1,0
184,184,238244,1,8
328,144,238469,1,0
256,56,238695,5,0
256,192,238920,1,0
256,328,239146,1,10
256,328,239371,1,0
256,328,239597,5,0
216,208,239823,1,2
256,192,239935,1,0
296,208,240048,1,8
256,56,240274,1,0
184,88,240499,5,2
256,56,240725,1,0
328,88,240950,1,8
256,56,241176,1,0
256,144,241401,5,0
256,168,241514,1,0
256,192,241627,1,0
256,216,241740,1,0
256,240,241853,1,8
256,312,242078,1,0
256,312,242304,1,4
152,192,242755,5,8
256,144,242980,1,0
256,144,243206,1,0
360,192,243432,1,0
360,192,243544,1,0
360,192,243657,1,8
360,192,243883,1,0
256,144,244108,1,0
184,192,244334,5,0
256,232,244559,2,0,B|256:336,2,90,8|0|0
320,192,245236,1,0
376,128,245462,2,0,B|376:32,2,90,8|0|4
256,288,246138,6,0,B|256:336,2,45,0|0|8
256,288,246589,1,0
296,216,246815,1,2
216,216,247041,1,0
256,144,247266,2,0,B|256:32,2,90,8|0|2
336,120,247943,5,0
176,120,248168,1,8
336,120,248394,1,0
256,192,248620,12,4,249522
448,192,249973,5,8
256,56,250424,1,0
64,192,250875,1,8
256,328,251326,1,0
176,304,251552,5,0
216,232,251777,1,8
296,232,252003,1,0
336,304,252229,1,0
296,232,252454,1,0
216,232,252680,1,8
176,304,252905,1,0
256,160,253131,6,0,B|256:104,2,45
256,160,253582,1,8
256,160,253808,1,0
296,232,254033,1,2
216,232,254259,1,0
256,160,254484,1,8
184,80,254710,5,0
184,80,254823,1,0
184,80,254935,1,2
328,80,255161,1,0
160,168,255386,1,8
352,168,255612,1,0
256,296,255838,6,0,B|256:344,6,45,0|0|0|0|8|0|0
191,160,256740,6,0,B|207:88|327:95|327:184,3,180,4|8|0|8
256,208,258319,1,2
256,192,258544,12,0,260800
