osu file format v7

[General]
AudioFilename: Sweet Bitter Beauty Song.mp3
AudioLeadIn: 0
PreviewTime: 72676
Countdown: 0
SampleSet: Soft
StackLeniency: 0.7
Mode: 0
LetterboxInBreaks: 0

[Editor]
Bookmarks: 23052,37273,44943,58240,72680,88258,108766,131097,144860,161552,179142,198089,213428,224259
DistanceSpacing: 1.70000004768372
BeatDivisor: 4
GridSize: 8

[Metadata]
Title:Sweet Bitter Beauty Song (Full Ver.)
Artist:Hisaka Yoko
Creator:S i R i R u
Version:Hard
Source:K-ON!
Tags:anime akiyama mio

[Difficulty]
HPDrainRate:2
CircleSize:4
OverallDifficulty:6
SliderMultiplier:0.999999999999999
SliderTickRate:1

[Events]
//Background and Video events
0,0,"BG.jpg"
//Break Periods
2,37692,43660
2,55737,56291
2,59346,64863
2,109872,115840
2,167617,169976
2,172353,173585
2,175962,177194
2,184759,197945
2,228970,234036
//Storyboard Layer 0 (Background)
//Storyboard Layer 1 (Fail)
//Storyboard Layer 2 (Pass)
//Storyboard Layer 3 (Foreground)
//Storyboard Sound Samples
//Background Colour Transformations
3,100,255,255,255

[TimingPoints]
1402,451.127819548872,4,2,1,100,1,0
57116,-100,4,2,1,70,0,0
58244,-100,4,2,1,100,0,0
73582,-100,4,2,2,100,0,1
86214,-100,4,2,2,100,0,0
88018,-100,4,2,2,50,0,0
88920,-100,4,2,2,100,0,0
94785,-100,4,2,1,100,0,0
145762,-100,4,2,2,100,0,1
159296,-100,4,2,2,51,0,0
161101,-100,4,2,2,100,0,0
183206,-100,4,2,2,50,0,0
184559,-100,4,2,2,100,0,0
198995,-100,4,2,2,100,0,1
209823,-100,4,2,2,100,0,0
213432,-100,4,2,2,100,0,1
225612,-100,4,2,2,100,0,0
226965,-100,4,2,2,51,0,0
228770,-100,4,2,2,100,0,0
255838,-100,4,2,2,51,0,0
256740,-100,4,2,2,100,0,0
258544,-100,4,2,2,20,0,0
261026,-100,4,2,2,0,0,0

[Colours]
Combo1 : 236,36,36
Combo2 : 0,202,0
Combo3 : 12,150,252
Combo4 : 255,128,0

[HitObjects]
256,192,8620,2,0,B|256:312,4,99.9999999999999,4|8|0|8|0
184,192,10650,1,0
112,192,10875,2,0,B|112:136,2,50,8|0|0
184,328,11777,1,8
336,328,12229,6,0,B|448:328,2,99.9999999999999,4|8|0
264,328,13356,1,0
192,192,13808,1,0
120,192,14033,2,0,B|56:192,2,50,2|0|2
192,192,14710,1,0
312,104,15161,1,0
384,104,15386,1,8
392,256,15838,6,0,B|344:256|344:296|288:296,1,99.9999999999999,4|8
224,296,16514,1,0
152,296,16740,2,0,B|48:296,2,99.9999999999999,0|8|0
144,144,18093,1,8
208,104,18319,1,0
272,144,18544,1,0
416,192,18995,1,8
376,256,19221,1,0
416,320,19447,1,4
264,320,19898,5,8
112,320,20349,1,0
112,320,20574,1,0
112,168,21026,1,0
112,168,21138,1,0
112,168,21251,1,2
184,168,21477,2,0,B|224:120,2,50,0|2|0
184,240,22153,2,0,B|184:288,8,25,0|0|0|0|0|0|0|0|4
328,192,23507,6,0,B|440:192,2,99.9999999999999
256,56,24860,2,0,B|192:56,1,50
136,192,25537,2,0,B|72:192,2,50
208,192,26214,2,0,B|328:192,1,99.9999999999999,8|4
456,192,27116,5,0
456,192,27341,1,0
384,192,27567,2,0,B|384:240|336:240|336:288,1,99.9999999999999
192,328,28469,1,0
120,328,28695,1,0
120,176,29146,1,0
272,176,29597,1,0
344,176,29823,1,8
272,176,30048,1,0
272,104,30274,6,0,B|216:104|192:152|200:176,2,99.9999999999999,4|0|0
424,104,31627,1,0
424,256,32078,2,0,B|368:256,1,50
224,256,32755,2,0,B|288:256,2,50
152,256,33432,1,8
88,216,33657,1,0
88,144,33883,1,4
240,136,34334,5,0
272,200,34559,1,2
408,136,35011,1,0
448,200,35236,1,2
376,312,35687,5,0
296,344,35913,1,0
216,344,36138,1,0
136,312,36364,1,2
256,208,36815,1,0
256,208,36928,1,0
256,208,37041,1,8
256,208,37492,1,4
72,192,44710,6,0,B|72:304,1,99.9999999999999,4|0
144,264,45386,1,0
216,264,45612,2,0,B|216:160,1,99.9999999999999
288,192,46289,1,0
288,120,46514,2,0,B|360:120|360:208|432:192,2,150,0|0|8
136,120,48319,5,4
48,240,48770,1,0
136,120,49221,1,0
288,120,49672,1,0
360,120,49898,2,0,B|416:120,2,50
208,120,50800,2,0,B|208:232,1,99.9999999999999
208,296,51477,2,0,B|160:336,2,50,8|0|4
280,296,52153,5,0
280,296,52379,2,0,B|432:296,2,150
280,224,53958,1,0
136,192,54409,1,0
256,40,54860,5,0
296,112,55085,1,8
216,112,55311,1,0
256,40,55537,1,4
144,104,57341,5,0
256,40,57567,1,0
368,104,57792,1,0
256,40,58018,1,0
256,192,58469,5,0
256,192,58695,1,0
256,192,59146,1,4
88,192,65913,5,8
88,192,66364,2,0,B|200:192,1,99.9999999999999,4|8
224,256,67041,2,0,B|296:256,2,50
184,320,67717,2,0,B|128:320,2,50,8|0|0
336,320,68620,1,8
416,192,69071,5,0
368,136,69296,1,0
296,136,69522,1,8
224,136,69747,1,0
176,192,69973,2,0,B|72:192,2,99.9999999999999,4|8|0
176,192,71326,1,8
256,320,71777,1,0
256,248,72003,1,0
256,320,72229,1,8
256,64,73582,6,0,B|304:64|328:96|336:136,1,99.9999999999999,4|8
256,136,74259,1,0
256,208,74484,2,0,B|256:272,2,50,0|0|8
184,208,75161,1,0
112,208,75386,2,0,B|72:208|32:240|32:288,2,99.9999999999999,0|8|0
184,208,76514,1,0
184,280,76740,1,8
256,280,76965,1,0
328,280,77191,6,0,B|440:280,1,99.9999999999999,4|8
456,208,77868,1,0
456,136,78093,2,0,B|336:136,1,99.9999999999999,0|8
200,136,78995,1,0
128,280,79447,1,8
56,136,79898,1,0
128,280,80349,1,8
128,280,80574,1,0
128,280,80800,1,4
328,272,81251,6,0,B|432:272,2,99.9999999999999,8|0|8
256,240,82379,1,0
256,168,82605,2,0,B|256:104,2,50,0|0|8
104,168,83507,2,0,B|104:224,2,50,0|0|8
136,104,84183,1,0
208,104,84409,5,4
360,104,84860,1,8
360,256,85311,1,0
208,256,85762,1,8
136,256,85988,6,0,B|80:256,1,50
136,176,86439,2,0,B|72:176,1,50,0|8
136,96,86890,2,0,B|80:96,2,50
208,96,87567,1,8
256,192,88018,12,4,88920
256,192,89146,1,0
96,192,89597,1,0
80,232,89710,1,0
96,272,89823,1,2
176,272,90048,1,0
240,320,90274,2,0,B|304:320,2,50,2|0|0
240,320,90950,1,0
240,240,91176,1,8
240,160,91402,1,0
312,200,91627,5,4
352,200,91740,1,0
384,224,91853,1,0
328,280,92078,2,0,B|328:352,2,50,0|0|0
248,280,92755,1,0
168,280,92980,1,0
168,120,93432,1,2
88,120,93657,1,0
128,192,93883,1,2
168,120,94108,1,0
256,80,94334,5,0
296,96,94447,1,0
328,120,94559,1,0
352,152,94672,1,0
368,192,94785,1,8
312,256,95011,1,0
256,192,95236,5,4
256,192,95687,1,0
256,192,96138,2,0,B|256:312,2,99.9999999999999
184,192,97266,2,0,B|184:80,1,99.9999999999999
40,144,98168,1,0
40,216,98394,1,8
40,288,98620,1,0
112,288,98845,6,0,B|168:288|200:344,1,99.9999999999999,4|0
272,336,99522,1,0
272,264,99747,2,0,B|384:264,2,99.9999999999999
232,200,100875,2,0,B|232:88,2,99.9999999999999
232,240,101890,1,0
232,280,102003,1,8
352,192,102454,5,4
256,72,102905,1,0
168,192,103356,1,0
256,312,103808,1,0
256,312,104033,1,0
328,312,104259,2,0,B|384:312,1,50
416,168,104935,1,0
272,120,105386,6,0,B|208:120,1,50,0|8
160,168,105838,2,0,B|104:168,1,50,0|4
160,312,106514,1,0
232,336,106740,1,2
256,168,107191,6,0,B|256:96,2,50,0|2|0
336,184,107868,1,0
296,256,108093,1,0
216,256,108319,1,0
176,184,108544,1,2
256,56,108995,6,0,B|256:104,2,25,0|0|8
256,56,109672,1,4
160,192,116890,5,4
232,192,117116,1,0
232,120,117341,2,0,B|280:120|304:160|304:192,1,99.9999999999999,0|0
304,256,118018,1,0
256,312,118244,1,0
184,312,118469,1,0
112,312,118695,1,0
112,312,118920,1,0
112,160,119371,1,0
256,104,119823,1,0
328,104,120048,1,8
400,104,120274,5,0
400,104,120499,2,0,B|400:152|360:176|328:176,1,99.9999999999999,4|0
296,240,121176,1,0
248,304,121401,1,0
168,168,121853,1,0
168,88,122078,2,0,B|168:32,2,50
328,120,122980,2,0,B|376:120|400:160|400:192,1,99.9999999999999,4|0
400,256,123657,1,8
400,256,123883,1,0
400,256,124108,1,4
248,256,124559,5,0
112,328,125011,1,0
112,328,125236,1,0
184,328,125462,2,0,B|248:328,1,50
248,256,125913,2,0,B|312:256,1,50
152,256,126589,1,0
256,152,127041,1,0
184,152,127266,1,8
256,152,127492,1,0
328,152,127717,1,4
256,288,128168,5,0
256,288,128394,1,2
256,288,128845,1,0
256,288,129071,1,2
256,72,129522,1,0
256,72,129973,1,0
256,72,130198,1,2
224,272,130650,5,0
256,288,130762,1,0
288,272,130875,1,8
256,72,131326,1,4
152,192,131777,5,8
232,192,132003,1,0
304,160,132229,2,0,B|408:160,2,99.9999999999999,0|8|0
304,240,133356,1,0
344,312,133582,1,8
264,312,133808,1,0
304,240,134033,2,0,B|304:128,1,99.9999999999999,0|8
248,80,134710,1,0
168,80,134935,6,0,B|96:80,2,50,4|0|0
208,152,135612,1,0
168,224,135838,1,0
168,304,136063,1,0
320,264,136514,5,0
320,264,136627,1,0
320,264,136740,1,2
360,192,136965,1,0
400,264,137191,1,2
360,336,137417,1,0
320,264,137642,1,0
240,264,137868,1,0
160,264,138093,1,8
256,48,138544,6,0,B|256:168,1,99.9999999999999,4|8
256,232,139221,1,0
184,264,139447,2,0,B|184:336|328:344|328:256,1,200
256,128,140800,1,8
48,232,141251,6,0,B|48:288,1,50
128,256,141702,2,0,B|128:200,1,50,8|0
208,232,142153,1,4
368,232,142605,1,8
208,232,143056,1,0
256,168,143281,1,0
256,88,143507,1,8
408,128,143958,1,0
408,128,144183,1,0
408,128,144409,1,8
128,64,145762,5,4
176,128,145988,1,0
256,128,146214,2,0,B|304:128|328:168|328:200,1,99.9999999999999,8|0
328,264,146890,1,0
328,264,147116,2,0,B|328:312|288:336|256:336,1,99.9999999999999,8|0
216,280,147792,1,0
136,280,148018,2,0,B|88:280|64:240|64:208,2,99.9999999999999,8|0|8
256,176,149371,5,4
392,96,149823,1,8
392,176,150048,1,0
392,256,150274,1,0
256,336,150725,1,8
256,256,150950,1,0
256,336,151176,1,0
256,176,151627,6,0,B|304:176|328:216|336:248,1,99.9999999999999,8|0
256,256,152304,1,0
176,256,152529,1,8
96,256,152755,1,0
96,256,152980,1,4
176,88,153432,5,8
176,168,153657,2,0,B|128:168|104:128|96:96,1,99.9999999999999,0|0
176,88,154334,1,8
256,88,154559,2,0,B|296:88|296:128|352:128,1,99.9999999999999
424,128,155236,1,8
424,288,155687,5,0
344,264,155913,1,0
264,288,156138,1,8
184,264,156364,1,0
104,288,156589,1,4
104,128,157041,6,0,B|104:80|144:56|176:48,1,99.9999999999999,8|0
240,56,157717,1,0
304,112,157943,2,0,B|368:112,2,50,8|0|0
160,192,158845,1,8
256,192,159296,12,4,161101
256,192,161777,5,0
256,232,161890,1,0
256,272,162003,1,2
336,272,162229,1,0
400,320,162454,1,2
464,272,162680,1,0
464,192,162905,2,0,B|464:128,2,50,0|0|8
384,192,163582,1,0
304,192,163808,5,4
144,192,164259,1,8
280,112,164710,1,0
200,256,165161,1,8
200,96,165612,1,2
120,96,165838,1,0
120,96,166063,1,2
432,192,166514,5,0
432,112,166740,1,8
360,152,166965,1,8
432,192,167191,1,8
432,112,167417,1,4
256,336,171026,5,4
256,96,171702,1,0
256,176,171928,1,0
256,256,172153,1,2
256,192,174635,5,4
256,192,175311,1,0
256,272,175537,1,0
256,272,175762,1,2
120,192,178244,5,4
360,152,178920,1,0
432,192,179146,1,0
360,232,179371,1,2
288,192,179597,5,0
288,192,179823,1,0
200,192,180048,1,0
200,104,180274,2,0,B|168:48,2,50,0|2|0
112,104,180950,1,0
40,152,181176,1,0
40,152,181401,1,2
112,104,181627,1,0
192,192,181853,6,0,B|144:192,1,25,8|0
256,128,182191,2,0,B|256:80,1,25,8|0
320,192,182529,2,0,B|352:192,1,25,8|0
256,264,182868,2,0,B|256:296,1,25,8|0
256,192,183206,12,0,184559
112,192,198995,5,4
192,192,199221,2,0,B|240:144,2,50,0|8|0
192,272,199898,1,0
192,272,200123,1,0
192,272,200236,1,0
192,272,200349,1,8
272,272,200574,1,0
352,272,200800,6,0,B|352:168,1,99.9999999999999,0|8
352,88,201477,1,0
432,88,201702,1,0
352,88,201928,1,0
312,88,202041,1,0
272,88,202153,1,8
192,88,202379,1,0
192,168,202605,6,0,B|192:288,1,99.9999999999999,4|8
272,272,203281,2,0,B|304:328,2,50
272,192,203958,2,0,B|328:192,2,50,8|0|0
192,192,204635,2,0,B|120:192,1,50,0|8
48,64,205311,1,0
208,64,205762,1,8
280,96,205988,1,0
312,168,206214,1,4
184,264,206665,5,8
264,264,206890,1,0
184,264,207116,1,0
104,264,207341,1,0
104,264,207567,2,0,B|48:280|40:344,2,99.9999999999999,8|0|8
104,104,208920,1,0
176,64,209146,1,0
256,64,209371,1,8
336,64,209597,1,0
336,144,209823,6,0,B|336:216,1,50,4|0
256,216,210274,2,0,B|256:272,1,50,8|0
176,288,210725,2,0,B|176:344,2,50,0|0|8
96,288,211401,1,0
96,128,211853,5,0
168,88,212078,1,8
240,128,212304,1,0
312,88,212529,1,0
384,128,212755,2,0,B|440:128,2,50,0|8|0
384,208,213432,6,0,B|384:272|320:288,1,99.9999999999999,4|8
248,288,214108,2,0,B|184:288,2,50
248,208,214785,1,8
168,208,215011,1,0
168,128,215236,2,0,B|104:128|88:200,2,99.9999999999999,0|8|0
248,128,216364,2,0,B|280:72,2,50,0|8|0
248,208,217041,6,0,B|248:328,2,99.9999999999999,4|8|0
328,208,218168,1,0
408,208,218394,2,0,B|408:144,1,50,8|0
408,80,218845,2,0,B|296:80,1,99.9999999999999,0|8
256,144,219522,1,0
176,144,219747,1,0
216,216,219973,1,0
136,216,220198,1,8
136,216,220424,1,0
136,216,220650,1,4
256,320,221101,5,8
336,320,221326,1,0
392,264,221552,1,0
472,264,221777,1,0
472,184,222003,1,8
472,104,222229,5,0
472,104,222454,1,0
312,104,222905,1,8
232,104,223131,1,0
176,160,223356,1,0
96,160,223582,1,0
136,232,223808,1,8
256,312,224033,5,0
256,312,224259,1,4
256,232,224484,2,0,B|312:200,2,50,0|8|0
176,232,225161,2,0,B|112:232,2,50,0|0|8
176,152,225838,2,0,B|176:48,1,99.9999999999999
96,56,226514,1,8
96,136,226740,1,0
256,192,226965,12,4,228770
256,80,235086,6,0,B|256:200,4,99.9999999999999,4|8|0|8|0
96,64,237341,5,8
176,208,237792,1,0
336,208,238244,1,8
416,64,238695,1,4
416,64,238920,1,0
416,64,239146,1,8
256,96,239597,5,0
256,176,239823,1,0
256,256,240048,1,8
256,336,240274,1,0
256,336,240386,1,0
256,336,240499,1,2
184,304,240725,1,0
256,336,240950,1,2
328,304,241176,1,0
256,264,241401,5,0
256,232,241514,1,0
256,200,241627,1,0
256,168,241740,1,0
256,136,241853,1,8
256,56,242078,1,0
256,56,242304,1,4
120,192,242755,5,8
256,328,243206,1,0
392,192,243657,1,8
256,56,244108,1,0
176,56,244334,6,0,B|112:56,1,50,0|8
152,136,244785,2,0,B|216:136,1,50
176,216,245236,2,0,B|120:216,1,50,0|8
152,296,245687,1,0
232,296,245913,1,4
312,296,246138,1,0
392,296,246364,1,8
256,80,246815,5,0
256,160,247041,1,0
256,80,247266,1,8
184,120,247492,1,0
144,120,247605,1,0
104,120,247717,1,2
128,200,247943,5,0
192,248,248168,1,2
272,248,248394,1,0
272,328,248620,2,0,B|336:328,2,50,0|0|8
128,152,249522,6,0,B|240:152,1,99.9999999999999,4|8
384,232,250424,2,0,B|272:232,1,99.9999999999999,0|8
128,152,251326,2,0,B|240:152,1,99.9999999999999,0|8
384,232,252229,2,0,B|272:232,1,99.9999999999999,0|8
256,72,253131,5,4
256,152,253356,1,0
256,232,253582,1,8
256,232,254033,1,0
256,232,254259,1,2
104,176,254710,5,0
80,208,254823,1,0
104,240,254935,1,2
104,320,255161,1,0
184,320,255386,1,2
264,320,255612,1,0
256,192,255838,12,4,256740
256,192,257191,5,8
256,192,257642,1,0
256,272,257868,2,0,B|256:328,2,50,0|8|0
208,104,258770,6,0,B|152:88,2,50
304,104,259447,2,0,B|360:88,2,50,0|0|0
256,184,260123,1,0
256,184,260349,2,0,B|256:256,2,50
256,184,261251,1,0
