osu file format v7

[General]
AudioFilename: Listen!! (TV Size).mp3
AudioLeadIn: 2500
PreviewTime: 44885
Countdown: 0
SampleSet: Normal
StackLeniency: 0.4
Mode: 0
LetterboxInBreaks: 0

[Editor]
Bookmarks: 999,6485,11970,17456,22942,28428,33913,39399,44885,50370,55856,61342,66828,72313,76428,79170,84656,87399
DistanceSpacing: 0.759999990463257
BeatDivisor: 4
GridSize: 8

[Metadata]
Title:Listen!! (TV Size)
Artist:Hisaka Yoko
Creator:DJPop
Version:Normal
Source:K-ON!!
Tags:toyosaki aki hikasa yoko satou satomi kotobuki minako taketatsu ayana hirasawa yui akiyama mio tainaka ritsu kotobuki tsumugi nakano asuza k-on keion youngdow

[Difficulty]
HPDrainRate:3
CircleSize:3
OverallDifficulty:4
SliderMultiplier:1.28
SliderTickRate:2

[Events]
//Background and Video events
0,0,"Listen!! (TV Size).png"
Video,165,"Listen!! (TV Size).avi"
//Break Periods
//Storyboard Layer 0 (Background)
//Storyboard Layer 1 (Fail)
//Storyboard Layer 2 (Pass)
//Storyboard Layer 3 (Foreground)
//Storyboard Sound Samples
//Background Colour Transformations
3,100,0,0,0

[TimingPoints]
-361,342.857142857143,4,1,1,75,1,0
33153,-100,4,1,2,75,0,0
33581,-100,4,1,1,75,0,0
34095,-100,4,2,2,75,0,0
34181,-100,4,1,1,75,0,0
34439,-100,4,2,2,75,0,0
34524,-100,4,1,1,75,0,0
35124,-100,4,2,2,75,0,0
35210,-100,4,1,1,75,0,0
35467,-100,4,2,2,75,0,0
35553,-100,4,1,1,75,0,0
36153,-100,4,2,2,75,0,0
36239,-100,4,1,1,75,0,0
36495,-100,4,2,2,75,0,0
36581,-100,4,1,1,75,0,0
39581,-100,4,2,2,75,0,0
39667,-100,4,1,1,75,0,0
39924,-100,4,2,2,75,0,0
40010,-100,4,1,1,75,0,0
40610,-100,4,2,2,75,0,0
40696,-100,4,1,1,75,0,0
40953,-100,4,2,2,75,0,0
41039,-100,4,1,1,75,0,0
41638,-100,4,2,2,75,0,0
41724,-100,4,1,1,75,0,0
41981,-100,4,2,2,75,0,0
42067,-100,4,1,1,75,0,0
44553,-100,4,2,2,75,0,0
44810,-100,4,1,1,75,0,0
44896,-100,4,1,1,75,0,1
45239,-100,4,2,2,75,0,1
45324,-100,4,1,1,75,0,1
45924,-100,4,2,2,75,0,1
46010,-100,4,1,1,75,0,1
46610,-100,4,2,2,75,0,1
46696,-100,4,1,1,75,0,1
47981,-100,4,2,2,75,0,1
48067,-100,4,1,1,75,0,1
48667,-100,4,2,2,75,0,1
48753,-100,4,1,1,75,0,1
49353,-100,4,2,2,75,0,1
49439,-100,4,1,1,75,0,1
50724,-100,4,2,2,75,0,1
50810,-100,4,1,1,75,0,1
51410,-100,4,2,2,75,0,1
51496,-100,4,1,1,75,0,1
52095,-100,4,2,2,75,0,1
52181,-100,4,1,1,75,0,1
53467,-100,4,2,2,75,0,1
53553,-100,4,1,1,75,0,1
54153,-100,4,2,2,75,0,1
54239,-100,4,1,1,75,0,1
54838,-100,4,2,2,75,0,1
54924,-100,4,1,1,75,0,1
55181,-100,4,1,2,75,0,1
55524,-100,4,2,2,75,0,1
55781,-100,4,1,1,75,0,1
56210,-100,4,2,2,75,0,1
56296,-100,4,1,1,75,0,1
58953,-100,4,2,2,75,0,1
59039,-100,4,1,1,75,0,1
61696,-100,4,2,2,75,0,1
61781,-100,4,1,1,75,0,1
65467,-100,4,2,1,0,0,1
66410,-100,4,2,1,75,0,1
66667,-100,4,1,1,75,0,0
75581,-100,4,2,2,75,0,0
75667,-100,4,1,1,75,0,0
75924,-100,4,2,2,75,0,0
76010,-100,4,1,1,75,0,0
76267,-100,4,2,2,75,0,0
76353,-100,4,1,1,75,0,0
86124,-100,4,1,2,75,0,0
87324,-100,4,1,1,75,0,0
88781,-100,4,2,2,0,0,0

[Colours]
Combo1 : 140,199,143
Combo2 : 233,127,163
Combo3 : 203,183,234
Combo4 : 248,233,118

[HitObjects]
256,352,1010,5,4
80,256,1696,1,0
192,96,2381,2,0,B|160:48|112:36|64:48|32:96,2,192
240,176,3753,5,0
368,32,4439,1,0
480,192,5124,2,0,B|496:299|448:320|384:320,1,192,0|2
288,320,5981,2,0,C|96:320,1,192,2|4
32,136,7181,5,0
192,32,7867,2,0,C|384:32,2,192
96,32,9239,5,0
128,224,9924,1,0
304,144,10610,2,0,B|336:96|384:84|432:96|464:144,1,192,0|2
463,239,11467,2,0,B|431:287|383:299|335:287|304:240,1,192,2|4
144,352,12667,5,0
32,192,13353,2,0,C|224:192,2,192
32,96,14724,5,0
216,32,15410,1,0
408,32,16096,2,0,B|503:68|480:160|480:192,1,192,0|2
480,288,16953,2,0,B|448:336|400:348|352:336|320:288,1,192,2|0
128,352,18153,5,0
32,176,18839,2,0,B|32:128|28:52|128:32,2,192
128,192,20210,5,0
224,192,20553,2,0,B|272:192|336:160|304:112|272:64|336:32|385:32,1,256
480,32,21581,2,0,C|480:224,1,192,0|2
480,320,22438,2,0,C|288:320,1,192,2|4
96,320,23639,5,0
240,192,24324,2,0,C|48:192,2,192
336,192,25696,5,0
480,64,26381,1,0
288,32,27067,2,0,C|96:32,1,192,0|2
32,104,27924,2,0,C|32:296,1,192,2|0
216,352,29124,5,0
408,352,29810,2,0,B|448:344|472:320|486:288|472:256|448:232|408:224,1,192
312,224,30667,2,0,B|272:216|248:192|234:160|248:128|272:104|312:96,1,192
408,96,31524,6,0,B|384:40|353:6|304:8|272:16|232:32|200:64,1,256
128,128,32553,2,0,C|72:176,4,64,0|0|12|0|2
160,352,33924,6,0,C|160:224,2,128,4|8|8
256,352,34953,2,0,C|256:224,2,128,8|8|8
352,352,35981,2,0,C|352:224,2,128,8|8|4
256,160,37353,5,0
112,32,38039,2,0,C|304:32,1,192,0|2
400,32,38896,1,2
352,224,39410,6,0,C|352:352,2,128,4|8|8
256,224,40439,2,0,C|256:352,2,128,8|8|8
160,224,41467,2,0,C|160:352,2,128,8|8|4
160,32,42839,6,0,C|352:32,1,192,0|2
320,128,43696,2,0,C|192:128,1,128,2|2
96,160,44381,6,0,B|56:152|32:136|24:96|32:56|56:40|96:32,2,192,8|4|0
96,256,45753,2,0,B|108:320|160:320|192:320,3,128
304,224,47296,1,8
400,224,47638,6,0,B|480:224|485:176|480:128|400:128,1,192
304,128,48496,2,0,C|176:128,3,128
48,192,50039,1,8
48,96,50381,6,0,B|84:56|128:32|176:40|224:48,1,192,4|0
320,64,51239,2,0,B|384:77|448:64,3,128
480,208,52781,1,8
480,304,53124,6,0,B|416:312|376:305|344:264|352:208,1,192
256,208,53981,2,0,C|256:336,3,128
160,336,55353,6,0,B|128:336|32:363|32:272|32:240,2,192,2|4|0
160,240,56724,1,0
96,160,57067,1,0
32,80,57410,1,0
128,80,57752,2,0,B|160:32|208:20|256:32|288:80,1,192,0|8
384,80,58610,6,0,B|424:88|448:104|456:144|448:184|424:200|384:208,1,192
288,208,59467,1,0
360,272,59810,1,0
432,336,60153,1,0
336,336,60496,2,0,B|280:344|248:304|216:264|160:272,1,192,0|8
104,192,61353,6,0,B|56:224|44:272|56:320|104:352,2,192,4|0|8
104,192,62553,1,4
128,48,63067,2,0,B|256:21|384:48,1,256,8|8
352,192,64267,5,8
352,192,64438,1,8
256,192,64781,1,8
256,192,64952,1,8
160,192,65296,2,0,B|136:264|136:320|184:360|256:382|328:360|376:320|376:264|352:192,1,448,4|2
448,192,66839,5,4
448,96,67181,1,8
352,64,67524,1,8
256,32,67867,1,8
160,64,68210,5,8
64,96,68553,1,8
64,192,68896,1,8
160,192,69238,1,8
256,192,69581,5,8
352,192,69924,1,8
448,192,70267,1,8
448,288,70610,1,8
352,320,70952,5,8
256,352,71295,1,8
160,320,71638,1,8
64,288,71981,1,10
64,192,72324,5,4
64,96,72667,1,8
160,64,73010,1,8
256,32,73353,1,8
352,64,73695,5,8
448,96,74038,1,8
448,192,74381,1,8
352,192,74724,1,8
320,288,75067,6,0,B|256:301|192:288,4,128,4|8|8|8|0
96,192,77810,5,8
256,192,78324,1,8
416,192,78838,1,8
448,96,79181,5,4
256,32,79867,1,0
64,96,80553,2,0,C|64:288,1,192,0|2
160,288,81410,2,0,C|352:288,1,192,2|0
480,144,82610,5,0
320,32,83296,2,0,C|128:32,2,192
320,128,84667,5,0
448,272,85353,1,0
256,288,86039,2,0,C|256:352,8,64,0|8|8|4|8|4|4|2|4
256,192,87495,12,0,88781
