osu file format v7

[General]
AudioFilename: Listen!! (TV Size).mp3
AudioLeadIn: 2500
PreviewTime: 44885
Countdown: 0
SampleSet: Normal
StackLeniency: 0.4
Mode: 0
LetterboxInBreaks: 0

[Editor]
Bookmarks: 999,6485,11970,17456,22942,28428,33913,39399,44885,50370,55856,61342,66828,72313,76428,79170,84656,87399
DistanceSpacing: 1
BeatDivisor: 4
GridSize: 32

[Metadata]
Title:Listen!! (TV Size)
Artist:Hisaka Yoko
Creator:DJPop
Version:Insane
Source:K-ON!!
Tags:toyosaki aki hikasa yoko satou satomi kotobuki minako taketatsu ayana hirasawa yui akiyama mio tainaka ritsu kotobuki tsumugi nakano asuza k-on keion youngdow

[Difficulty]
HPDrainRate:5
CircleSize:5
OverallDifficulty:8
SliderMultiplier:1.92
SliderTickRate:2

[Events]
//Background and Video events
0,0,"Listen!! (TV Size).png"
Video,165,"Listen!! (TV Size).avi"
//Break Periods
//Storyboard Layer 0 (Background)
//Storyboard Layer 1 (Fail)
//Storyboard Layer 2 (Pass)
//Storyboard Layer 3 (Foreground)
//Storyboard Sound Samples
//Background Colour Transformations
3,100,0,0,0

[TimingPoints]
-361,342.857142857143,4,1,2,75,1,0
924,-100,4,1,1,75,0,0
33067,-100,4,1,2,75,0,0
33839,-100,4,1,1,75,0,0
44896,-100,4,1,1,75,0,1
55181,-100,4,1,2,75,0,1
55781,-100,4,1,1,75,0,1
65381,-100,4,2,1,50,0,1
66410,-100,4,2,1,75,0,1
66581,-100,4,2,1,50,0,1
66752,-100,4,1,1,75,0,0
76438,-200,4,1,1,75,0,0
76609,-200,4,2,2,0,0,0
76695,-200,4,2,1,50,0,0
76952,-200,4,2,2,0,0,0
77038,-200,4,2,1,50,0,0
77295,-200,4,2,2,0,0,0
77381,-200,4,2,1,50,0,0
77638,-200,4,2,2,0,0,0
77724,-100,4,1,2,75,0,0
78838,-100,4,1,1,75,0,0
86124,-100,4,1,2,75,0,0
87324,-100,4,1,1,75,0,0
88781,-100,4,2,2,0,0,0

[Colours]
Combo1 : 140,199,143
Combo2 : 233,127,163
Combo3 : 203,183,234
Combo4 : 248,233,118

[HitObjects]
256,352,324,5,2
256,288,495,1,8
256,256,581,1,8
256,224,667,1,12
256,192,752,1,8
256,160,838,1,8
256,128,924,1,8
256,96,1009,6,0,B|244:41|192:32,1,96,4|0
192,96,1352,2,0,B|182:149|128:160,1,96,8|0
128,96,1695,2,0,B|116:41|64:32,1,96
64,96,2038,2,0,B|54:149|0:160,1,96,8|0
0,224,2381,5,0
0,288,2552,2,0,B|15:345|64:352,1,96,0|8
128,352,2895,1,0
320,352,3238,2,0,C|416:352,1,96,0|8
480,352,3581,1,0
480,288,3752,6,0,C|480:192,1,96
416,192,4095,2,0,C|416:288,1,96,8|0
352,288,4438,2,0,C|352:192,1,96
288,192,4781,2,0,C|288:288,1,96,8|0
256,352,5124,5,0
224,288,5295,2,0,C|224:192,1,96,0|8
256,128,5638,1,2
63,128,5981,2,0,C|64:32,1,96,2|8
128,32,6324,1,0
160,32,6410,1,0
192,32,6495,6,0,C|288:32,1,96,4|0
352,32,6838,2,0,C|448:32,1,96,8|0
512,32,7181,2,0,C|512:128,1,96
512,192,7524,2,0,C|512:288,1,96,8|0
512,352,7867,5,0
448,352,8038,2,0,B|396:343|384:288,1,96,0|8
384,224,8381,1,0
192,224,8724,2,0,C|192:320,1,96,0|8
128,352,9067,1,0
64,320,9238,6,0,B|74:267|128:256,1,96
128,192,9581,2,0,C|32:192,1,96,8|0
32,128,9924,2,0,B|44:73|96:64,1,96
160,64,10267,2,0,B|213:74|224:128,1,96,8|0
256,192,10610,5,0
288,128,10781,2,0,B|299:74|352:64,1,96,0|8
416,64,11124,1,2
512,224,11467,2,0,C|416:224,1,96,2|8
352,256,11810,1,0
416,288,11981,6,0,C|512:288,1,96,4|0
512,352,12324,2,0,C|416:352,1,96,8|0
352,320,12667,1,0
288,288,12838,1,0
224,256,13010,1,8
160,288,13181,1,0
224,320,13352,5,0
160,352,13524,2,0,C|64:352,1,96,0|8
0,352,13867,1,0
0,160,14210,2,0,C|96:160,1,96,0|8
160,160,14552,1,0
224,160,14724,5,0
192,96,14895,1,0
160,32,15067,1,8
224,32,15238,1,0
256,96,15410,1,0
288,32,15581,1,0
352,32,15752,1,8
320,96,15924,1,0
288,160,16095,5,0
352,160,16267,2,0,C|448:160,1,96,0|8
512,160,16610,1,2
512,352,16952,2,0,B|458:341|448:288,1,96,2|8
448,224,17295,1,0
384,224,17467,6,0,C|288:224,1,96
384,288,17810,2,0,C|288:288,1,96,8|0
352,352,18152,1,0
288,352,18323,1,0
224,352,18496,2,0,C|224:256,1,96,8|0
192,192,18838,5,0
160,256,19010,2,0,C|160:352,1,96,0|8
96,352,19352,2,0,B|72:336|48:312|35:272|48:232|72:208|96:192,1,192
96,128,19867,1,8
128,64,20038,1,0
192,32,20210,6,0,C|288:32,1,96
224,96,20552,2,0,C|320:96,1,96,8|0
256,160,20895,2,0,C|352:160,1,96
288,224,21238,2,0,C|384:224,1,96,8|0
320,288,21581,5,0
352,352,21752,1,0
384,288,21924,1,8
448,320,22095,1,2
480,128,22438,2,0,C|480:32,1,96,2|8
416,32,22781,1,0
352,32,22952,6,0,C|352:128,1,96,4|0
288,32,23295,2,0,C|288:128,1,96,8|0
224,32,23638,2,0,C|224:128,1,96
160,32,23981,2,0,C|160:128,1,96,8|0
96,32,24324,5,0
32,32,24495,2,0,C|32:128,1,96,0|8
32,144,24752,1,0
32,160,24838,1,0
32,352,25181,2,0,C|128:352,1,96,0|8
192,352,25524,1,0
224,288,25695,5,0
160,288,25867,1,0
128,224,26038,1,8
168,166,26210,1,0
208,224,26381,2,0,C|304:224,1,96
344,166,26724,1,8
384,224,26895,1,0
352,288,27067,5,0
320,352,27238,2,0,C|416:352,1,96,0|8
480,352,27581,1,2
480,160,27924,2,0,B|469:105|416:96,1,96,2|8
352,96,28267,1,0
288,96,28438,6,0,C|192:96,1,96
288,32,28781,2,0,C|192:32,1,96,8|0
128,32,29124,1,0
64,64,29295,1,0
128,96,29467,1,8
64,128,29638,1,0
0,160,29810,5,0
0,224,29981,2,0,B|10:278|64:288,1,96,0|8
128,288,30324,1,0
320,352,30667,1,0
288,288,30838,1,8
256,224,31010,1,0
224,160,31181,6,0,C|224:64,1,96
288,32,31524,2,0,C|288:128,1,96,8|0
352,160,31867,1,0
352,96,32038,2,0,B|362:43|416:32,1,96,0|8
480,32,32381,1,0
480,96,32552,5,0
416,128,32724,1,0
480,160,32895,1,12
416,192,33067,1,0
480,224,33238,1,2
416,256,33410,1,0
448,272,33495,1,8
480,288,33581,1,8
416,320,33753,1,2
352,352,33924,5,4
304,272,34095,1,8
256,192,34267,1,8
208,112,34438,1,8
160,32,34610,1,8
160,352,34952,5,8
208,272,35124,1,8
256,192,35295,1,8
304,112,35467,1,8
352,32,35638,1,8
256,352,35981,5,8
256,272,36152,1,8
256,192,36324,1,8
256,112,36496,1,8
256,32,36667,6,0,C|160:32,1,96,4|0
64,32,37010,2,0,C|160:32,1,96,8|0
192,96,37352,2,0,C|96:96,1,96
0,96,37695,2,0,C|96:96,1,96,8|0
128,160,38038,5,0
64,192,38210,2,0,C|64:288,1,96,0|8
128,320,38552,1,2
320,352,38895,2,0,C|416:352,1,96,2|8
480,320,39238,1,0
416,288,39410,5,4
336,240,39581,1,8
256,192,39752,1,8
176,144,39924,1,8
96,96,40095,1,8
416,96,40438,5,8
336,144,40610,1,8
256,192,40781,1,8
176,240,40952,1,8
96,288,41124,1,8
416,192,41467,5,8
336,192,41638,1,8
256,192,41810,1,8
176,192,41981,1,8
96,192,42152,6,0,B|56:184|32:160|18:128|32:96|56:72|96:64,1,192,4|8
160,64,42667,2,0,C|256:64,1,96
320,32,43010,1,0
384,64,43181,1,8
448,32,43352,1,2
512,224,43695,5,2
480,288,43867,1,8
448,352,44038,1,2
416,288,44210,1,0
384,224,44381,1,8
352,240,44467,1,8
320,256,44552,1,8
288,272,44638,1,8
256,288,44724,1,8
224,304,44810,1,8
192,320,44895,6,0,C|0:320,1,192,4|8
0,256,45410,2,0,C|192:256,1,192
256,224,45924,1,8
320,192,46095,2,0,B|454:211|496:144,1,192
432,112,46610,1,8
495,79,46781,2,0,B|454:13|320:32,1,192
256,32,47295,1,8
64,32,47638,6,0,B|32:64|14:160|96:160|128:160,1,192,0|8
192,160,48152,2,0,B|208:160|272:160|295:207|272:256|208:256|192:256,1,192
128,256,48667,1,8
64,256,48838,2,0,B|0:256|0:304|8:320|13:352|64:352|96:352,1,192
160,352,49352,1,8
224,352,49524,2,0,C|416:352,1,192
480,352,50038,1,8
480,160,50381,6,0,C|288:160,1,192,0|8
224,160,50895,2,0,C|32:160,1,192
0,96,51410,1,8
32,32,51581,2,0,C|224:32,1,192
256,96,52095,1,8
288,32,52267,2,0,C|480:32,1,192
512,96,52781,1,8
480,288,53124,5,0
448,352,53295,1,0
416,288,53467,1,8
384,224,53638,2,0,B|368:176|322:165|288:192|288:240|288:288,1,192
256,352,54152,1,8
224,287,54324,2,0,B|224:240|224:192|190:165|144:176|128:224,1,192
96,288,54838,1,8
64,352,55010,1,0
0,160,55352,1,2
16,128,55438,1,4
32,96,55524,1,8
64,80,55610,1,4
96,64,55695,1,2
160,32,55867,5,4
224,32,56038,1,0
288,32,56210,1,8
352,32,56381,2,0,B|416:32|480:20|480:96|480:128,1,192
480,192,56895,1,8
416,192,57067,2,0,B|352:192|320:96|254:96,1,192
192,96,57581,1,8
192,160,57752,2,0,B|192:192|185:277|288:256|320:256,1,192
384,256,58267,1,8
224,352,58610,5,0
160,352,58781,1,0
96,352,58952,1,8
32,352,59124,2,0,B|32:320|5:224|96:224|128:224,1,192
192,224,59638,1,8
192,160,59810,2,0,B|160:160|96:176|48:160|32:96,1,192
32,32,60324,1,8
96,32,60495,2,0,C|288:32,1,192
320,96,61010,1,8
352,32,61181,1,0
416,32,61352,6,0,B|456:40|480:64|494:96|480:128|456:152|416:160,2,192,4|8|0
384,96,62210,1,0
352,160,62381,1,8
288,160,62552,1,4
96,160,62895,5,0
32,192,63067,1,8
0,256,63238,2,0,B|-8:372|96:352|128:352,1,192
192,352,63752,1,8
256,320,63924,1,0
256,256,64095,5,0
320,224,64267,1,8
384,192,64438,1,8
192,224,64781,1,8
128,192,64953,1,8
256,32,65296,1,4
197,71,65467,5,0
221,138,65638,1,0
291,138,65810,1,0
315,71,65981,1,0
512,32,66324,1,0
512,96,66496,1,2
512,160,66667,1,0
512,224,66838,6,0,C|512:320,1,96,4|0
448,352,67181,2,0,C|448:256,1,96,8|0
384,224,67524,2,0,C|384:320,1,96,8|0
320,352,67867,2,0,C|320:256,1,96,8|0
256,224,68210,6,0,C|160:224,1,96,8|0
64,224,68552,2,0,C|160:224,1,96,8|0
160,320,68895,2,0,C|160:224,1,96,8|0
160,160,69238,1,8
160,96,69410,1,0
96,64,69581,5,8
160,32,69752,1,0
224,32,69924,2,0,C|320:32,1,96,8|0
320,96,70267,2,0,C|416:96,1,96,8|0
416,160,70610,2,0,C|512:160,1,96,8|0
512,224,70952,5,8
512,288,71124,1,0
448,320,71295,1,8
448,256,71467,1,0
384,288,71638,1,8
384,352,71810,2,0,C|288:352,1,96,0|10
224,320,72152,1,0
288,288,72324,5,4
224,256,72495,1,0
288,224,72667,2,0,C|288:128,1,96,8|0
224,192,73010,2,0,C|224:96,1,96,8|0
160,160,73352,2,0,C|160:64,1,96,8|0
96,128,73695,5,8
96,64,73867,1,0
32,32,74038,1,8
32,96,74210,1,0
32,128,74295,1,0
32,160,74381,1,8
32,224,74552,1,0
96,192,74724,1,8
96,256,74895,1,0
32,288,75067,5,4
224,352,75410,1,8
288,320,75581,1,8
352,288,75752,1,8
416,256,75924,1,8
448,240,76010,1,8
480,224,76095,1,8
480,160,76267,1,8
448,144,76352,1,8
416,128,76438,6,0,C|368:128,1,48
336,32,76781,2,0,C|288:32,1,48
256,128,77124,2,0,C|208:128,1,48
176,32,77467,2,0,C|128:32,1,48
96,128,77810,6,0,C|48:128,5,48,8|4|4|2|2|4
96,128,78324,2,0,C|144:128,5,48,8|4|4|2|2|4
96,128,78838,1,8
96,160,78924,1,8
96,192,79010,1,8
96,224,79095,1,8
96,256,79181,6,0,C|96:352,1,96,4|0
160,256,79524,2,0,C|160:352,1,96,8|0
224,256,79867,2,0,C|224:352,1,96
288,256,80210,2,0,C|288:352,1,96,8|0
352,256,80553,5,0
352,320,80724,2,0,B|352:344|384:367|416:344|416:320,1,96,0|8
416,256,81067,1,2
512,96,81410,2,0,C|512:192,1,96,2|8
448,192,81753,1,0
448,128,81924,6,0,C|448:32,1,96
384,128,82267,2,0,C|384:32,1,96,8|0
320,128,82610,2,0,C|320:32,1,96
256,128,82953,2,0,C|256:32,1,96,8|0
192,128,83296,5,0
192,64,83467,2,0,B|192:40|160:17|128:40|128:64,1,96,0|8
128,128,83810,1,0
0,256,84153,2,0,C|0:352,1,96,0|8
64,352,84496,1,0
128,352,84667,6,0,B|179:344|192:288,1,96
232,352,85010,2,0,B|285:343|296:288,1,96,8|0
336,352,85353,2,0,B|389:343|400:288,1,96
440,352,85696,2,0,B|493:342|504:288,1,96,8|0
512,192,86038,5,0
448,192,86210,1,0
416,192,86295,1,8
384,192,86381,1,8
352,192,86467,1,4
320,192,86552,1,2
288,192,86639,1,8
256,192,86724,1,8
224,192,86810,1,4
192,192,86895,1,4
160,192,86981,1,2
128,192,87067,1,2
64,192,87238,1,2
0,192,87410,1,4
256,192,87495,12,0,88781
