osu file format v7

[General]
AudioFilename: Listen!! (TV Size).mp3
AudioLeadIn: 2500
PreviewTime: 44885
Countdown: 0
SampleSet: Normal
StackLeniency: 0.4
Mode: 0
LetterboxInBreaks: 0

[Editor]
Bookmarks: 999,6485,11970,17456,22942,28428,33913,39399,44885,50370,55856,61342,66828,72313,76428,79170,84656,87399
DistanceSpacing: 0.670000016689301
BeatDivisor: 4
GridSize: 32

[Metadata]
Title:Listen!! (TV Size)
Artist:Hisaka Yoko
Creator:DJPop
Version:Easy
Source:K-ON!!
Tags:toyosaki aki hikasa yoko satou satomi kotobuki minako taketatsu ayana hirasawa yui akiyama mio tainaka ritsu kotobuki tsumugi nakano asuza k-on keion youngdow

[Difficulty]
HPDrainRate:1
CircleSize:3
OverallDifficulty:2
SliderMultiplier:0.96
SliderTickRate:2

[Events]
//Background and Video events
0,0,"Listen!! (TV Size).png"
Video,165,"Listen!! (TV Size).avi"
//Break Periods
//Storyboard Layer 0 (Background)
//Storyboard Layer 1 (Fail)
//Storyboard Layer 2 (Pass)
//Storyboard Layer 3 (Foreground)
//Storyboard Sound Samples
//Background Colour Transformations
3,100,0,0,0

[TimingPoints]
-361,342.857142857143,4,1,1,75,1,0
34095,-100,4,2,2,75,0,0
34524,-100,4,1,1,75,0,0
35124,-100,4,2,2,75,0,0
35553,-100,4,1,1,75,0,0
36153,-100,4,2,2,75,0,0
36581,-100,4,1,1,75,0,0
39581,-100,4,2,2,75,0,0
40010,-100,4,1,1,75,0,0
40610,-100,4,2,2,75,0,0
41039,-100,4,1,1,75,0,0
41638,-100,4,2,2,75,0,0
42067,-100,4,1,1,75,0,0
43867,-100,4,2,2,75,0,0
43953,-100,4,1,1,75,0,0
44895,-100,4,1,1,75,0,1
62381,-100,4,2,2,75,0,1
62467,-100,4,1,1,75,0,1
64439,-100,4,2,2,75,0,1
64524,-100,4,2,1,0,0,1
64696,-100,4,1,1,75,0,1
64953,-100,4,2,2,75,0,1
65039,-100,4,2,1,0,0,1
65210,-100,4,1,1,75,0,1
65467,-100,4,1,1,75,0,0
86210,-100,4,1,2,75,0,0
87324,-100,4,1,1,75,0,0
88781,-100,4,2,2,0,0,0

[Colours]
Combo1 : 140,199,143
Combo2 : 233,127,163
Combo3 : 203,183,234
Combo4 : 248,233,118

[HitObjects]
256,320,1010,5,4
256,192,1696,1,0
256,64,2381,2,0,C|448:64,1,192
448,192,3753,5,0
448,320,4439,1,0
352,232,5124,2,0,C|160:232,1,192
64,320,6496,5,4
64,192,7181,1,0
64,64,7867,2,0,C|256:64,1,192
256,192,9239,5,0
256,320,9924,1,0
384,320,10610,2,0,B|432:304|448:288|460:256|448:224|432:208|384:192,1,192
384,64,11981,5,4
256,64,12667,1,0
176,160,13353,2,0,C|32:160,2,144
240,160,14724,5,0
368,160,15410,1,0
336,288,16096,2,0,C|480:288,2,144,0|2|0
272,288,17467,5,0
144,288,18153,1,0
48,192,18839,2,0,C|48:336,2,144
48,128,20210,5,0
176,128,20896,1,0
288,192,21581,2,0,C|288:48,2,144,0|2|0
416,192,23296,5,8
384,320,23981,1,8
256,352,24667,1,8
128,320,25353,1,8
96,192,26039,5,8
128,64,26724,1,8
256,32,27410,1,8
384,64,28096,1,8
416,192,28781,5,8
287,192,29467,1,8
160,192,30153,1,8
96,80,30839,1,8
32,192,31524,5,8
96,304,32210,1,8
160,192,32896,1,12
480,120,33924,6,0,C|288:120,1,192,4|8
288,192,34953,2,0,C|480:192,1,192,8|8
480,264,35981,2,0,C|288:264,1,192,8|4
192,352,37353,5,0
64,352,38039,2,0,B|40:328|32:312|34:287|48:256|72:248|96:248,1,144,0|2
144,248,38896,1,2
224,176,39410,6,0,C|32:176,1,192,4|8
32,104,40439,2,0,C|224:104,1,192,8|8
224,32,41467,2,0,C|32:32,1,192,8|4
384,32,43353,6,0,C|480:32,2,96,2|2|2
480,160,44896,6,0,C|480:304,1,144,4|0
352,328,46096,2,0,C|352:136,1,192
160,304,47639,6,0,C|160:160,1,144
32,136,48839,2,0,C|32:328,1,192
32,32,50381,6,0,C|176:32,1,144,4|0
304,32,51581,2,0,B|336:56|360:72|392:67|424:72|448:56|480:32,1,192
480,352,53124,6,0,C|336:352,1,144
208,352,54324,2,0,B|176:328|152:312|120:317|88:312|64:328|32:352,1,192
32,192,55867,6,0,C|128:192,1,96,4|8
40,96,56896,1,8
160,40,57581,1,8
256,128,58267,1,8
256,256,58953,5,8
352,344,59639,1,8
472,288,60324,1,8
384,192,61010,6,0,C|480:192,1,96,8|4
480,64,62039,2,0,C|336:64,1,144,0|4
224,64,63067,2,0,C|32:64,1,192,8|8
32,160,64267,6,0,C|32:304,2,144,8|8|4
480,160,66839,5,4
448,288,67524,1,8
320,320,68210,1,8
192,320,68896,1,8
64,288,69581,5,8
32,160,70267,1,8
64,32,70952,1,8
176,96,71638,1,8
256,200,72324,5,4
336,96,73010,1,8
448,32,73695,1,8
480,160,74381,1,8
256,192,75067,12,0,76439
256,320,79181,5,4
127,320,79867,1,0
32,240,80553,2,0,C|32:96,1,144,0|2
32,32,81410,1,2
128,32,81924,5,0
256,32,82610,1,0
336,128,83296,2,0,C|480:128,2,144
272,128,84667,5,0
152,176,85353,1,0
256,256,86039,2,0,C|256:352,4,96,0|8|8|2|4
