osu file format v11

[General]
AudioFilename: 01. Bios Epic Edition.mp3
AudioLeadIn: 2000
PreviewTime: 237794
Countdown: 0
SampleSet: Normal
StackLeniency: 0.4
Mode: 0
LetterboxInBreaks: 0

[Editor]
Bookmarks: 57243,93274,95748,119099,179025,237563,298181,327872,338466,368445,418921
DistanceSpacing: 0.1
BeatDivisor: 4
GridSize: 4

[Metadata]
Title:Bios Epic Edition
TitleUnicode:βίος Epic Edition
Artist:Hiroyuki Sawano feat. Mika Kobayashi
ArtistUnicode:Hiroyuki Sawano feat. Mika Kobayashi
Creator:Fumika
Version:GUILTY CROWN
Source:GUILTY CROWN
Tags:Netsukawa Release my Soul (MK+nZk Version) Hill Of Sorrow onedaysnotice44 Aimee Blackshleger
BeatmapID:215891
BeatmapSetID:76711

[Difficulty]
HPDrainRate:8
CircleSize:4
OverallDifficulty:7
ApproachRate:9
SliderMultiplier:1.76
SliderTickRate:1

[Events]
//Background and Video events
0,0,"GC.jpg"
//Break Periods
2,39505,56643
2,59917,75045
2,81721,92674
2,97031,114478
2,115587,417393
//Storyboard Layer 0 (Background)
//Storyboard Layer 1 (Fail)
//Storyboard Layer 2 (Pass)
//Storyboard Layer 3 (Foreground)
//Storyboard Sound Samples
//Background Colour Transformations
3,100,163,162,255

[TimingPoints]
390,468.75,4,2,2,80,1,0
17656,309.278350515464,4,2,2,80,1,0
37449,-100,4,2,2,80,0,0
57243,-100,4,1,1,80,0,0
57320,-100,4,2,3,80,0,0
75645,-100,4,1,1,80,0,0
77037,-100,4,1,1,80,0,1
96753,-100,4,1,1,80,0,0
96831,-100,4,1,1,80,0,1
115078,-100,4,1,2,80,0,1
115387,-100,4,1,1,80,0,1
116625,-100,4,1,1,80,0,0
119099,309.278350515464,4,1,1,80,1,0
176006,301.507537688442,4,2,1,80,1,0
177775,312.5,4,2,1,80,1,0
179025,312.5,4,2,1,80,1,0
237563,309.278350515464,4,2,1,80,1,0
238800,309.278350515464,4,2,1,80,1,1
258516,-100,4,2,1,80,0,0
258593,-100,4,2,1,80,0,1
278387,-100,4,2,1,80,0,0
338466,312.5,4,2,1,80,1,0
367208,309.278350515464,4,2,1,80,1,0
368445,309.278350515464,4,2,1,80,1,1
388238,-100,4,2,1,80,0,0
388303,309.278350515464,4,2,1,80,1,1
408096,-100,4,2,1,80,0,0

[Colours]
Combo1 : 214,171,41
Combo2 : 125,133,225
Combo3 : 243,78,173
Combo4 : 41,194,175

[HitObjects]
256,192,37449,1,4,0:2:0
256,192,37913,1,8,0:0:0
256,192,38377,1,0,0:0:0
256,192,38996,1,0,0:0:0
256,192,39305,1,8,0:0:0
256,192,57243,5,4,0:1:0
256,192,57552,1,8,0:0:0
256,192,57707,1,0,0:0:0
256,192,57862,1,0,0:0:0
256,192,58171,1,8,0:0:0
256,192,58480,1,0,0:0:0
256,192,58790,1,8,0:0:0
256,192,58944,1,0,0:0:0
256,192,59099,1,0,0:0:0
256,192,59408,1,8,0:0:0
256,192,59717,1,0,0:0:0
256,192,75645,5,0,0:0:0
256,192,75723,1,0,0:0:0
256,192,75800,1,0,0:0:0
256,192,75954,1,0,0:0:0
256,192,76109,1,0,0:0:0
256,192,76264,1,0,0:0:0
256,192,76418,1,0,0:0:0
256,192,76573,1,0,0:0:0
256,192,77037,1,4,0:0:0
256,192,77192,1,2,0:0:0
256,192,77346,1,0,0:0:0
256,192,77501,1,2,0:0:0
256,192,77656,1,8,0:0:0
256,192,77810,1,2,0:0:0
256,192,77965,1,0,0:0:0
256,192,78119,1,2,0:0:0
256,192,78274,1,0,0:0:0
256,192,78429,1,8,0:0:0
256,192,78583,1,0,0:0:0
256,192,78738,1,2,0:0:0
256,192,78893,1,8,0:0:0
256,192,79047,1,2,0:0:0
256,192,79202,1,2,0:0:0
256,192,79511,1,4,0:0:0
256,192,79666,1,2,0:0:0
256,192,79820,1,0,0:0:0
256,192,79975,1,2,0:0:0
256,192,80130,1,8,0:0:0
256,192,80284,1,2,0:0:0
256,192,80439,1,0,0:0:0
256,192,80593,1,2,0:0:0
256,192,80748,1,0,0:0:0
256,192,80903,1,8,0:0:0
256,192,81057,1,0,0:0:0
256,192,81212,1,2,0:0:0
256,192,81367,1,8,0:0:0
256,192,81521,1,2,0:0:0
256,192,93274,5,2,0:0:0
256,192,93428,1,0,0:0:0
256,192,93583,1,2,0:0:0
256,192,93738,1,8,0:0:0
256,192,93892,1,2,0:0:0
256,192,94047,1,0,0:0:0
256,192,94201,1,2,0:0:0
256,192,94356,1,0,0:0:0
256,192,94511,1,8,0:0:0
256,192,94665,1,0,0:0:0
256,192,94820,1,2,0:0:0
256,192,94975,1,8,0:0:0
256,192,95130,1,0,0:0:0
256,192,95284,1,8,0:0:0
256,192,95439,1,8,0:0:0
256,192,95594,1,0,0:0:0
256,192,95748,1,0,0:0:0
256,192,95903,1,8,0:0:0
256,192,96058,1,0,0:0:0
256,192,96212,1,0,0:0:0
256,192,96367,1,8,0:0:0
256,192,96521,1,0,0:0:0
256,192,96676,1,8,0:0:0
256,192,96831,1,4,0:0:0
256,192,115078,5,0,0:0:0
256,192,115233,1,0,0:0:0
256,192,115387,1,0,0:0:0
256,192,417993,12,0,418921,0:0:0
