osu file format v9

[General]
AudioFilename: ios.mp3
AudioLeadIn: 2004
PreviewTime: 78397
Countdown: 0
SampleSet: Normal
StackLeniency: 0.7
Mode: 0
LetterboxInBreaks: 1

[Editor]
Bookmarks: 10355,20252,30149,40046,44995,59840,69737,79634,98190,119221,139015,158809
DistanceSpacing: 0.81
BeatDivisor: 4
GridSize: 8

[Metadata]
Title:Bios
Artist:Hiroyuki Sawano feat. Mika Kobayashi
Creator:goodbye
Version:Normal
Source:GUILTY CROWN
Tags:ost eveless pokie lks karenying kanarin climbb65588 climbb

[Difficulty]
HPDrainRate:4
CircleSize:4
OverallDifficulty:4
ApproachRate:5
SliderMultiplier:0.999999999999999
SliderTickRate:1

[Events]
//Background and Video events
0,0,"GC (5).jpg"
//Break Periods
2,10555,16578
2,40246,43795
2,60040,68537
//Storyboard Layer 0 (Background)
//Storyboard Layer 1 (Fail)
//Storyboard Layer 2 (Pass)
//Storyboard Layer 3 (Foreground)
//Storyboard Sound Samples
//Background Colour Transformations
3,100,163,162,255

[TimingPoints]
459,309.278350515464,4,2,1,30,1,0
20252,-100,4,1,1,50,0,0
69737,-100,4,1,2,50,0,0
79634,-100,4,1,1,65,0,1
98190,-100,4,1,1,70,0,1
118603,-100,4,1,2,70,0,1
119221,-100,4,1,1,55,0,0
139015,-100,4,1,1,65,0,0
148912,-100,4,1,1,55,0,0
158809,-100,4,2,1,35,0,0
176129,-100,4,2,1,35,0,0
177211,-100,4,2,1,15,0,0
178216,-100,4,2,1,5,0,0

[Colours]
Combo1 : 64,0,64
Combo2 : 30,37,132
Combo3 : 125,0,0
Combo4 : 122,5,70

[HitObjects]
160,80,459,2,0,B|112:160|144:224|200:256,1,200,4|2
264,216,1386,1,8
344,216,1696,2,0,B|362:100|478:79,1,200,0|2
496,160,2623,1,8
472,240,2933,6,0,B|448:318|369:360|302:341,1,200,0|2
252,301,3861,1,0
184,344,4170,5,4
104,256,4634,1,10
136,144,5098,1,8
56,144,5407,6,0,B|49:81|105:48|170:51|203:76|199:108,1,200,0|2
208,168,6335,1,8
240,240,6644,2,0,B|268:351|400:348,1,200,0|2
463,321,7572,1,8
439,244,7881,5,4
478,130,8345,1,2
371,75,8809,1,8
314,131,9118,2,0,B|261:183|173:181|116:117,1,200,0|2
95,61,10046,1,8
177,67,10355,5,4
256,192,17778,12,4,20252
256,192,20871,5,8
256,192,21489,2,0,B|264:304,1,99.9999999999999
200,344,22108,1,8
96,224,22727,6,0,B|36:160|144:119|81:32,1,200,0|8
240,96,23964,2,0,B|299:78|344:115,1,99.9999999999999
381,175,24582,1,8
266,289,25201,6,0,B|200:338|105:312|116:224,1,200,0|8
229,123,26438,2,0,B|128:61,2,99.9999999999999,0|0|8
384,176,27675,5,0
296,312,28294,1,8
296,312,28603,2,0,B|238:265|241:167|279:125,1,200
198,102,29531,1,8
64,192,30149,6,0,B|144:328,2,150,0|8|0
43,156,31232,2,0,B|130:97,1,99.9999999999999
200,128,31850,1,0
200,128,32005,2,0,B|296:64,1,99.9999999999999,8|0
352,120,32623,6,0,B|320:200|352:256|376:280,2,150,0|8|0
392,112,33706,2,0,B|424:64|384:16,1,99.9999999999999
312,40,34324,1,0
280,64,34479,2,0,B|232:96|176:80,1,99.9999999999999,8|0
112,48,35098,5,0
88,168,35562,1,0
88,168,35716,2,0,B|64:216|96:256|44:271,1,99.9999999999999,8|0
40,296,36180,2,0,B|88:328|144:304,1,99.9999999999999
208,264,36799,1,0
248,264,36953,2,0,B|280:228|360:240,1,99.9999999999999,8|0
416,272,37572,5,0
456,160,38036,1,2
368,72,38500,1,0
368,72,38654,2,0,B|264:56,1,99.9999999999999
248,96,39118,2,0,B|144:112,1,99.9999999999999,0|8
72,120,39737,1,8
104,48,40046,5,4
32,328,44995,6,0,B|96:280|192:304,1,150
208,320,45613,2,0,B|328:312,1,99.9999999999999,8|0
352,312,46077,2,0,B|280:160,1,150
248,104,46850,1,8
96,56,47469,6,0,B|32:96|32:176|56:224|80:248,1,200,0|8
144,272,48397,2,0,B|208:224|288:248,2,150,0|0|8
72,312,49634,1,0
144,352,49943,5,0
208,200,50562,1,8
120,120,51026,1,0
240,88,51489,1,0
240,88,51799,2,0,B|296:144|384:144,1,150,8|0
408,120,52417,6,0,B|384:240,1,99.9999999999999
358,293,53036,2,0,B|316:254|254:269,1,99.9999999999999,8|0
184,280,53654,5,0
112,240,53964,1,0
40,208,54273,1,8
104,160,54582,6,0,B|64:96|128:24|192:40|224:64,1,200
266,112,55510,2,0,B|416:88,1,150,8|0
400,168,56283,1,0
381,247,56593,1,0
381,247,56747,2,0,B|336:296|272:288,1,99.9999999999999,8|0
216,256,57366,5,0
288,112,57984,1,8
381,248,58603,1,0
304,232,58912,1,0
240,176,59221,2,0,B|192:144|136:152,1,99.9999999999999,8|0
64,168,59840,5,4
96,208,69737,5,8
189,126,70201,1,0
216,248,70665,1,8
368,312,71283,1,0
416,248,71593,1,8
336,240,71902,1,0
288,304,72211,5,8
168,328,72675,1,0
192,208,73139,1,8
168,128,73448,5,0
104,80,73757,1,8
176,48,74067,1,8
168,128,74376,1,0
112,192,74685,5,8
216,248,75149,1,0
320,184,75613,1,8
296,264,75922,1,0
272,344,76232,1,8
192,328,76541,1,8
112,304,76850,1,0
32,280,77160,5,4
32,280,77469,1,0
456,72,79634,5,0
408,224,80252,1,8
344,176,80562,1,2
272,136,80871,2,0,B|200:88|120:112,2,150,0|8|2
272,217,82108,5,0
166,276,82572,1,8
80,190,83036,1,2
128,344,83654,1,8
208,344,83964,1,2
288,344,84273,1,8
368,344,84582,6,0,B|444:300|448:208|407:163,1,200,0|8
376,104,85510,1,2
312,56,85819,2,0,B|233:81|156:48,1,150,0|8
64,120,86747,1,2
128,168,87056,6,0,B|168:200|176:248|160:272,1,99.9999999999999,0|2
168,296,87520,2,0,B|192:240|264:232,1,99.9999999999999,8|2
322,218,88139,1,8
344,256,88294,6,0,B|324:366,2,99.9999999999999,0|2|8
424,232,89221,1,2
504,208,89531,5,0
392,96,90149,1,8
392,96,90459,1,2
336,40,90768,5,0
304,200,91386,1,8
304,200,91696,1,2
288,280,92005,5,0
168,248,92469,1,8
88,336,92933,1,2
168,328,93242,5,8
168,248,93551,1,2
88,240,93861,1,0
88,160,94170,1,10
88,80,94479,6,0,B|208:64,1,99.9999999999999,4|2
224,80,94943,2,0,B|272:112|256:176,1,99.9999999999999,8|0
240,200,95407,1,10
280,272,95716,5,0
384,208,96180,1,8
488,144,96644,1,2
432,88,96953,6,0,B|336:32|224:64,1,200,0|8
200,128,97881,2,0,B|160:168,1,50,2|8
168,248,98345,2,0,B|136:312,1,50,8|2
112,368,98809,1,2
64,304,99118,1,2
64,224,99428,6,0,B|88:184|41:129|41:129|96:160|144:112,1,200,4|8
200,168,100355,2,0,B|312:128,1,99.9999999999999,2|0
408,96,101129,5,8
448,208,101593,1,2
392,272,101902,2,0,B|288:304,1,99.9999999999999,0|2
256,288,102366,2,0,B|208:256|160:272,1,99.9999999999999,8|0
120,288,102830,1,10
56,232,103139,5,0
64,152,103448,1,2
72,72,103757,1,8
224,128,104376,6,0,B|272:72|368:64|416:96,1,200,0|8
416,128,105149,2,0,B|384:240,1,99.9999999999999,2|8
376,264,105613,6,0,B|320:328|232:312,1,150,0|8
155,227,106541,2,0,B|112:184|55:199,1,99.9999999999999,2|0
32,168,107005,2,0,B|56:64,2,99.9999999999999,2|8|0
18,206,107778,1,2
40,280,108087,5,8
192,336,108706,1,8
306,221,109324,6,0,B|386:176|366:81,2,150,4|8|2
184,120,110871,2,0,B|144:88|89:84,2,99.9999999999999,2|8|2
162,198,111799,6,0,B|154:262|90:302|58:302,2,150,0|8|2
195,272,113036,2,0,B|218:342|316:363,1,150,2|8
426,335,113964,1,2
444,256,114273,6,0,B|356:194,1,99.9999999999999,0|2
328,176,114737,2,0,B|309:289,1,99.9999999999999,8|0
301,315,115201,1,10
223,291,115510,5,2
69,239,116129,1,8
256,192,116747,12,0,118603
256,192,119221,5,4
256,352,119840,1,2
416,352,120459,1,0
416,192,121077,1,2
416,192,121386,1,0
368,256,121696,5,0
320,80,122314,1,2
144,128,122933,1,0
144,128,123242,1,0
208,192,123551,2,0,B|208:264|160:296,1,99.9999999999999,2|0
96,328,124170,5,0
296,344,124788,1,2
316,144,125407,1,0
112,128,126026,1,2
112,128,126335,1,0
112,128,126644,6,0,B|72:174|80:239|137:268,1,150
270,298,127572,1,2
341,226,127881,2,0,B|290:183|235:201,1,99.9999999999999
177,269,128500,2,0,B|97:230|107:144|155:104,1,200,2|0
360,88,129737,5,2
336,184,130046,1,0
304,280,130355,2,0,B|504:256,1,200,0|2
457,346,131283,1,0
355,346,131593,6,0,B|286:262|157:302,1,200,0|2
82,341,132520,1,0
82,239,132830,2,0,B|20:153,2,99.9999999999999,0|0|2
232,104,134067,5,0
408,200,134685,1,2
256,336,135304,1,0
344,296,135613,1,0
432,248,135922,1,2
344,200,136232,1,0
248,160,136541,2,0,B|184:160|136:200|128:248|128:304,1,200,0|2
328,336,137778,5,0
448,176,138397,1,2
448,176,138706,1,0
392,88,139015,6,0,B|288:56,1,99.9999999999999,0|2
250,36,139479,2,0,B|144:53,2,99.9999999999999,0|8|0
259,85,140252,2,0,B|293:135|261:199,1,99.9999999999999,0|2
208,256,140871,1,8
120,208,141180,1,2
80,296,141489,6,0,B|176:352,1,99.9999999999999,0|2
216,336,141953,2,0,B|320:328,1,99.9999999999999,8|0
401,274,142572,1,0
401,274,142727,2,0,B|352:240|364:183,1,99.9999999999999,8|2
405,96,143345,1,8
476,167,143654,1,2
405,96,143964,6,0,B|360:56|304:56,1,99.9999999999999,0|2
288,104,144428,2,0,B|240:120|176:80,2,99.9999999999999,8|0|0
304,152,145201,1,8
232,224,145510,1,2
304,296,145819,1,8
216,344,146129,2,0,B|152:336|112:352,1,99.9999999999999,2|0
64,360,146593,6,0,B|104:256,1,99.9999999999999,8|0
120,216,147056,2,0,B|80:104,1,99.9999999999999,8|2
50,86,147520,2,0,B|98:54|162:70,1,99.9999999999999,0|8
193,83,147984,1,2
286,43,148294,1,8
357,114,148603,1,10
424,192,148912,6,0,B|424:256|352:272,1,99.9999999999999,4|2
320,264,149376,2,0,B|256:240|208:272,2,99.9999999999999,8|0|0
345,307,150149,2,0,B|374:349|457:331,1,99.9999999999999,8|2
507,263,150768,1,8
455,176,151077,1,2
400,96,151386,6,0,B|361:48|305:52,1,99.9999999999999,0|2
278,87,151850,2,0,B|176:65,1,99.9999999999999,8|0
130,55,152314,1,10
58,126,152623,1,0
96,219,152933,1,2
139,309,153242,1,8
232,272,153551,1,2
328,312,153861,6,0,B|384:334|440:296,1,99.9999999999999,4|2
460,269,154324,2,0,B|409:238|414:172,1,99.9999999999999,8|0
413,135,154788,1,10
326,82,155098,2,0,B|262:49|212:68|182:136|224:192,1,200,8|8
264,256,156026,1,2
192,327,156335,6,0,B|125:352|104:295|138:248|72:223|40:239,1,200,0|8
41,136,157263,2,0,B|14:78,1,50,2|8
121,90,157727,2,0,B|140:139,1,50,8|2
237,114,158190,2,0,B|260:172|333:158,1,99.9999999999999,8|2
400,176,158809,5,4
296,48,159428,1,8
192,168,160047,1,0
296,288,160665,1,8
216,312,160974,1,0
144,344,161284,5,0
220,201,161902,1,8
372,257,162521,1,0
372,257,162830,1,8
314,199,163139,2,0,B|314:127|362:95,1,99.9999999999999,0|8
404,49,163758,5,0
242,49,164376,1,8
156,186,164995,1,0
270,300,165614,1,8
270,300,165923,1,0
270,300,166232,6,0,B|310:254|302:189|245:160,1,150,0|8
150,112,167160,1,8
80,152,167469,2,0,B|120:203|186:177,1,99.9999999999999,0|8
227,127,168088,2,0,B|307:166|297:252|249:292,1,200,8|4
93,336,169325,5,8
117,258,169634,1,0
164,195,169943,2,0,B|288:208|326:311,1,200,0|8
388,253,170871,1,0
455,207,171181,6,0,B|386:123|257:163,1,200,0|8
247,235,172108,1,0
328,235,172418,2,0,B|386:250|390:321,2,99.9999999999999,0|0|8
213,349,173655,5,0
165,194,174273,1,8
88,166,174582,1,0
102,245,174891,1,0
216,130,175510,5,8
295,146,175820,1,0
288,67,176129,2,0,B|377:75|421:152|403:213,1,200,0|8
291,315,177366,5,4
132,282,177984,2,0,B|104:248|58:250,1,74.9999999999999,2|0
