osu file format v14

[General]
AudioFilename: Levi Theme.mp3
AudioLeadIn: 0
PreviewTime: 95743
Countdown: 0
SampleSet: Soft
StackLeniency: 0.7
Mode: 0
LetterboxInBreaks: 0
WidescreenStoryboard: 0

[Editor]
DistanceSpacing: 1.4
BeatDivisor: 4
GridSize: 4
TimelineZoom: 1

[Metadata]
Title:Shingeki st-hrn-egt20130629 Kyojin
TitleUnicode:進撃st-hrn-egt20130629巨人
Artist:Hiroyuki Sawano
ArtistUnicode:澤野弘之
Creator:-Nya-
Version:Hard
Source:進撃の巨人
Tags:Shingeki no Kyojin levi captain annie mikasa ackerman ost soundtrack attack on titan
BeatmapID:771456
BeatmapSetID:349867

[Difficulty]
HPDrainRate:6
CircleSize:4
OverallDifficulty:6
ApproachRate:7.5
SliderMultiplier:1.4
SliderTickRate:1

[Events]
//Background and Video events
0,0,"Levi and Mikasa attack Female.jpg",0,0
//Break Periods
2,68922,81514
//Storyboard Layer 0 (Background)
//Storyboard Layer 1 (Fail)
//Storyboard Layer 2 (Pass)
//Storyboard Layer 3 (Foreground)
//Storyboard Sound Samples

[TimingPoints]
637,425.531914893617,4,2,1,50,1,0
82339,-100,4,2,1,20,0,0
84360,-100,4,2,1,15,0,0
84892,-100,4,2,1,20,0,0
85743,-100,4,2,1,35,0,0
87764,-100,4,2,1,30,0,0
88083,-100,4,2,1,25,0,0
89147,-100,4,2,1,40,0,0
91168,-100,4,2,1,30,0,0
91700,-100,4,2,1,35,0,0
92551,-100,4,2,1,45,0,0
94573,-100,4,2,1,35,0,0
95105,-100,4,2,1,20,0,0
95956,-100,4,2,1,70,0,1
123190,-100,4,2,1,50,0,0

[Colours]
Combo1 : 255,255,136
Combo2 : 0,121,121
Combo3 : 130,192,255
Combo4 : 151,75,0

[HitObjects]
184,164,637,6,0,L|240:120,1,70,8|0,0:0|0:0,0:0:0:0:
332,152,1062,2,0,L|279:197,1,70,0|8,0:0|0:0,0:0:0:0:
204,260,1488,1,0,0:0:0:0:
108,236,1700,1,0,0:0:0:0:
72,144,1913,2,0,L|64:72,1,70,8|0,0:0|0:0,0:0:0:0:
188,48,2339,6,0,P|228:60|276:60,1,70,8|0,0:0|0:0,0:0:0:0:
304,64,2658,1,0,0:0:0:0:
352,64,2764,2,0,L|412:120,1,70,0|8,0:0|0:0,0:0:0:0:
424,208,3190,2,0,L|364:264,1,70,0|0,0:0|0:0,0:0:0:0:
296,316,3615,1,8,0:0:0:0:
296,316,3722,1,0,0:0:0:0:
296,316,3828,1,0,0:0:0:0:
172,292,4041,6,0,B|164:220|164:220|124:160,1,140,8|0,0:0|0:0,0:0:0:0:
224,148,4679,2,0,L|136:28,1,140,8|0,0:0|0:0,0:0:0:0:
240,48,5317,2,0,L|284:108,1,70,8|0,0:0|0:0,0:0:0:0:
376,132,5743,6,0,B|412:104|412:104|444:48,2,105,8|0|8,0:0|0:0|0:0,0:0:0:0:
344,220,6594,1,0,0:0:0:0:
344,220,6700,1,0,0:0:0:0:
344,220,6807,1,0,0:0:0:0:
312,312,7019,1,8,0:0:0:0:
216,336,7232,1,0,0:0:0:0:
124,300,7445,6,0,B|96:272|92:244|92:244|68:220|68:164,1,140,8|0,0:0|0:0,0:0:0:0:
104,84,8083,2,0,P|144:96|232:36,1,140,8|0,0:0|0:0,0:0:0:0:
324,40,8722,2,0,L|372:100,1,70,8|0,0:0|0:0,0:0:0:0:
436,164,9147,6,0,B|464:136|464:136|476:68,2,105,8|0|8,0:0|0:0|0:0,0:0:0:0:
392,252,9998,2,0,L|356:272,3,35,0|0|0|0,0:0|0:0|0:0|0:0,0:0:0:0:
316,288,10424,2,0,P|276:280|244:288,1,70,8|0,0:0|0:0,0:0:0:0:
152,208,10849,6,0,P|136:164|72:92,1,140,8|0,0:0|0:0,0:0:0:0:
160,44,11488,2,0,B|196:72|208:104|208:104|280:76,1,140,8|0,0:0|0:0,0:0:0:0:
352,36,12126,1,8,0:0:0:0:
388,128,12339,1,0,0:0:0:0:
360,220,12551,6,0,B|316:212|316:212|260:172,2,105,8|0|8,0:0|0:0|0:0,0:0:0:0:
456,236,13402,2,0,L|496:208,3,35,0|0|0|0,0:0|0:0|0:0|0:0,0:0:0:0:
492,168,13828,2,0,L|496:88,1,70,8|0,0:0|0:0,0:0:0:0:
380,48,14254,6,0,P|344:36|276:44,2,105,8|2|0,0:0|0:0|0:0,0:0:0:0:
472,28,15105,2,0,P|475:63|464:96,1,70,0|0,0:0|0:0,0:0:0:0:
400,195,15530,2,0,P|388:162|392:128,1,70,4|0,3:3|0:0,0:0:0:0:
332,240,15956,6,0,P|312:200|312:132,2,105,8|2|0,0:0|0:0|0:0,0:0:0:0:
288,328,16807,1,0,0:0:0:0:
288,328,16913,1,0,0:0:0:0:
288,328,17019,1,0,0:0:0:0:
196,296,17232,2,0,L|120:244,1,70,4|0,3:3|0:0,0:0:0:0:
104,136,17658,6,0,B|132:144|168:120|216:128,2,105,8|2|0,0:0|0:0|0:0,0:0:0:0:
16,180,18509,2,0,P|3:147|5:113,1,70,0|0,0:0|0:0,0:0:0:0:
76,44,18934,2,0,L|156:32,1,70,4|0,3:3|0:0,0:0:0:0:
272,32,19360,6,0,B|296:64|296:64|368:80,2,105,8|2|0,0:0|0:0|0:0,0:0:0:0:
232,120,20211,2,0,L|188:44,1,70,0|0,0:0|0:0,0:0:0:0:
164,152,20636,2,0,L|199:212,1,70,4|0,3:3|0:0,0:0:0:0:
228,252,20956,1,0,0:0:0:0:
268,280,21062,6,0,P|316:268|380:276,2,105,8|2|0,0:0|0:0|0:0,0:0:0:0:
304,188,21913,2,0,P|344:188|392:196,1,70,0|0,0:0|0:0,0:0:0:0:
380,92,22339,2,0,P|340:88|280:92,1,70,4|0,3:3|0:0,0:0:0:0:
184,96,22764,6,0,B|172:180|172:180|184:212,2,105,8|2|0,0:0|0:0|0:0,0:0:0:0:
100,44,23615,1,0,0:0:0:0:
100,44,23722,1,0,0:0:0:0:
100,44,23828,1,0,0:0:0:0:
40,120,24041,2,0,L|24:200,1,70,4|0,3:3|0:0,0:0:0:0:
56,312,24466,6,0,B|100:296|100:296|192:296,2,105,8|2|0,0:0|0:0|0:0,0:0:0:0:
136,372,25317,2,0,L|212:372,1,70,0|0,0:0|0:0,0:0:0:0:
300,344,25743,2,0,P|316:304|312:260,1,70,4|0,3:3|0:0,0:0:0:0:
288,156,26168,6,0,L|248:56,2,105,8|2|0,0:0|0:0|0:0,0:0:0:0:
368,208,27019,1,0,0:0:0:0:
368,208,27126,1,0,0:0:0:0:
368,208,27232,1,0,0:0:0:0:
428,132,27445,2,0,L|448:64,1,70,4|0,3:3|0:0,0:0:0:0:
328,24,27871,5,8,0:0:0:0:
132,36,28296,2,0,P|92:72|44:76,1,70,0|8,0:0|0:0,0:0:0:0:
8,148,28722,1,2,0:0:0:0:
8,148,28828,1,2,0:0:0:0:
8,148,28934,1,0,0:0:0:0:
44,240,29147,2,0,L|72:312,1,70,8|2,0:0|0:0,0:0:0:0:
188,352,29573,5,8,0:0:0:0:
332,220,29998,2,0,P|376:172|392:168,1,70,0|8,0:0|0:0,0:0:0:0:
448,104,30424,2,0,L|416:68,3,35,2|2|0|2,0:0|0:0|0:0|0:0,0:0:0:0:
376,84,30849,2,0,L|344:48,3,35,8|2|2|0,0:0|0:0|0:0|0:0,0:0:0:0:
292,40,31275,5,8,0:0:0:0:
116,124,31700,2,0,L|120:216,1,70,0|8,0:0|0:0,0:0:0:0:
156,284,32126,1,2,0:0:0:0:
156,284,32232,1,2,0:0:0:0:
156,284,32339,1,0,0:0:0:0:
252,292,32551,2,0,P|304:276|344:272,1,70,8|2,0:0|0:0,0:0:0:0:
444,256,32977,5,8,0:0:0:0:
344,88,33402,2,0,B|308:92|308:92|252:88,1,70,0|8,0:0|0:0,0:0:0:0:
176,92,33828,2,0,L|144:128,3,35,2|2|0|2,0:0|0:0|0:0|0:0,0:0:0:0:
164,168,34254,2,0,L|132:204,3,35,8|2|2|0,0:0|0:0|0:0|0:0,0:0:0:0:
112,248,34679,5,8,0:0:0:0:
292,324,35105,2,0,P|336:312|392:312,1,70,0|8,0:0|0:0,0:0:0:0:
432,244,35530,1,2,0:0:0:0:
432,244,35637,1,2,0:0:0:0:
432,244,35743,1,0,0:0:0:0:
400,152,35956,2,0,L|352:68,1,70,8|2,0:0|0:0,0:0:0:0:
248,48,36381,5,8,0:0:0:0:
100,176,36807,2,0,L|56:112,1,70,0|8,0:0|0:0,0:0:0:0:
144,68,37232,2,0,L|172:108,3,35,2|2|0|2,0:0|0:0|0:0|0:0,0:0:0:0:
204,124,37658,2,0,L|232:164,3,35,8|2|2|0,0:0|0:0|0:0|0:0,0:0:0:0:
276,188,38083,5,8,0:0:0:0:
448,284,38509,2,0,B|460:320|460:320|464:368,1,70,0|8,0:0|0:0,0:0:0:0:
364,340,38934,1,2,0:0:0:0:
364,340,39041,1,2,0:0:0:0:
364,340,39147,1,0,0:0:0:0:
268,360,39360,2,0,P|268:308|288:280,1,70,8|2,0:0|0:0,0:0:0:0:
364,204,39785,5,8,0:0:0:0:
272,32,40211,2,0,P|236:52|176:60,1,70,0|8,0:0|0:0,0:0:0:0:
120,100,40637,2,0,L|112:156,3,35,2|2|0|2,0:0|0:0|0:0|0:0,0:0:0:0:
148,172,41062,2,0,L|140:228,3,35,8|2|2|0,0:0|0:0|0:0|0:0,0:0:0:0:
168,264,41488,6,0,P|216:256|252:296,1,105,8|0,0:0|0:0,0:0:0:0:
260,344,41913,2,0,L|340:296,1,70,0|8,0:0|0:0,0:0:0:0:
400,248,42339,1,2,0:0:0:0:
400,248,42445,1,2,0:0:0:0:
400,248,42551,1,0,0:0:0:0:
380,152,42764,2,0,P|344:112|340:88,1,70,8|2,0:0|0:0,0:0:0:0:
224,44,43190,6,0,B|184:40|184:40|124:88,1,105,8|0,0:0|0:0,0:0:0:0:
104,120,43615,2,0,P|60:152|32:160,1,70,0|8,0:0|0:0,0:0:0:0:
40,256,44041,2,0,L|80:284,3,35,2|2|0|2,0:0|0:0|0:0|0:0,0:0:0:0:
116,264,44466,2,0,L|156:292,3,35,8|2|2|0,0:0|0:0|0:0|0:0,0:0:0:0:
208,284,44892,6,0,P|244:272|252:188,1,105,8|0,0:0|0:0,0:0:0:0:
252,168,45317,2,0,L|320:112,1,70,0|8,0:0|0:0,0:0:0:0:
380,60,45743,1,2,0:0:0:0:
380,60,45849,1,2,0:0:0:0:
380,60,45956,1,0,0:0:0:0:
440,136,46168,2,0,L|480:224,1,70,8|2,0:0|0:0,0:0:0:0:
416,316,46594,6,0,B|356:320|356:320|324:300|304:300,1,105,8|0,0:0|0:0,0:0:0:0:
272,280,47019,2,0,P|236:252|228:216,1,70,0|8,0:0|0:0,0:0:0:0:
216,132,47445,2,0,L|184:104,3,35,2|2|0|2,0:0|0:0|0:0|0:0,0:0:0:0:
140,104,47871,2,0,L|108:76,3,35,8|2|2|0,0:0|0:0|0:0|0:0,0:0:0:0:
52,72,48296,6,0,L|36:208,1,105,8|0,0:0|0:0,0:0:0:0:
40,224,48722,2,0,B|60:256|60:256|116:280,1,70,0|8,0:0|0:0,0:0:0:0:
188,284,49147,1,2,0:0:0:0:
188,284,49254,1,2,0:0:0:0:
188,284,49360,1,0,0:0:0:0:
284,264,49573,2,0,L|348:208,1,70,8|2,0:0|0:0,0:0:0:0:
408,116,49998,6,0,P|412:80|336:84,1,105,8|0,0:0|0:0,0:0:0:0:
312,80,50424,2,0,P|268:88|232:80,1,70,0|8,0:0|0:0,0:0:0:0:
144,76,50849,2,0,L|100:64,3,35,2|2|0|2,0:0|0:0|0:0|0:0,0:0:0:0:
68,88,51275,2,0,L|24:76,3,35,8|2|2|0,0:0|0:0|0:0|0:0,0:0:0:0:
12,136,51700,6,0,P|24:180|24:264,1,105,8|0,0:0|0:0,0:0:0:0:
24,288,52126,2,0,L|104:276,1,70,0|8,0:0|0:0,0:0:0:0:
192,264,52551,1,2,0:0:0:0:
192,264,52658,1,2,0:0:0:0:
192,264,52764,1,0,0:0:0:0:
284,224,52977,2,0,P|304:176|288:136,1,70,8|2,0:0|0:0,0:0:0:0:
376,60,53402,6,0,B|408:72|444:68|444:68|444:112|452:136,1,105,8|0,0:0|0:0,0:0:0:0:
444,152,53828,2,0,P|432:200|448:232,1,70,0|8,0:0|0:0,0:0:0:0:
424,316,54254,2,0,L|368:348,3,35,2|2|0|2,0:0|0:0|0:0|0:0,0:0:0:0:
344,324,54679,2,0,L|288:356,3,35,8|2|2|0,0:0|0:0|0:0|0:0,0:0:0:0:
252,336,55105,6,0,B|200:304|200:304|212:284|212:248,1,105,8|0,0:0|0:0,0:0:0:0:
216,212,55530,1,0,0:0:0:0:
176,120,55743,1,0,0:0:0:0:
260,68,55956,2,0,L|296:48,3,35,2|0|2|0,0:0|0:0|0:0|0:0,0:0:0:0:
336,72,56381,2,0,L|372:52,3,35,8|0|2|0,0:0|0:0|0:0|0:0,0:0:0:0:
428,44,56807,6,0,P|456:72|456:160,1,105,8|0,0:0|0:0,0:0:0:0:
460,184,57232,1,0,0:0:0:0:
384,248,57445,1,0,0:0:0:0:
284,248,57658,2,0,L|232:228,3,35,2|0|2|0,0:0|0:0|0:0|0:0,0:0:0:0:
204,240,58083,2,0,L|152:220,3,35,8|0|2|0,0:0|0:0|0:0|0:0,0:0:0:0:
112,204,58509,6,0,B|92:164|116:120|116:120|112:84,1,105,8|0,0:0|0:0,0:0:0:0:
116,56,58934,1,0,0:0:0:0:
212,36,59147,1,0,0:0:0:0:
300,76,59360,2,0,L|336:104,3,35,2|0|2|0,0:0|0:0|0:0|0:0,0:0:0:0:
340,144,59785,2,0,L|376:172,3,35,8|0|2|0,0:0|0:0|0:0|0:0,0:0:0:0:
416,208,60211,6,0,P|424:248|384:324,1,105,8|0,0:0|0:0,0:0:0:0:
360,332,60636,1,0,0:0:0:0:
264,340,60849,1,0,0:0:0:0:
172,300,61062,2,0,L|144:276,3,35,2|0|2|0,0:0|0:0|0:0|0:0,0:0:0:0:
100,260,61488,2,0,L|72:236,3,35,8|0|2|0,0:0|0:0|0:0|0:0,0:0:0:0:
16,208,61913,6,0,B|28:136|28:136|24:88,1,105,8|0,0:0|0:0,0:0:0:0:
16,56,62339,1,0,0:0:0:0:
112,32,62551,1,0,0:0:0:0:
196,84,62764,2,0,L|240:112,3,35,2|0|2|0,0:0|0:0|0:0|0:0,0:0:0:0:
236,152,63190,2,0,L|280:180,3,35,8|0|2|0,0:0|0:0|0:0|0:0,0:0:0:0:
296,224,63615,6,0,P|288:272|336:324,1,105,8|0,0:0|0:0,0:0:0:0:
360,340,64041,1,0,0:0:0:0:
440,284,64254,1,0,0:0:0:0:
448,188,64466,2,0,L|432:152,3,35,2|0|2|0,0:0|0:0|0:0|0:0,0:0:0:0:
392,128,64892,2,0,L|376:92,3,35,8|0|2|0,0:0|0:0|0:0|0:0,0:0:0:0:
320,72,65317,6,0,B|312:112|288:132|288:132|308:172|280:212,1,140,8|0,0:0|0:0,0:0:0:0:
196,236,65956,1,0,0:0:0:0:
112,184,66168,2,0,P|96:228|140:320,1,140,2|8,0:0|0:0,0:0:0:0:
224,336,66807,1,2,0:0:0:0:
320,316,67019,6,0,B|388:280|388:280|452:264,1,140,8|0,0:0|0:0,0:0:0:0:
436,168,67658,1,0,0:0:0:0:
324,108,67871,2,0,L|300:140,3,35,2|0|2|0,0:0|0:0|0:0|0:0,0:0:0:0:
244,156,68296,2,0,L|220:188,3,35,8|0|2|0,0:0|0:0|0:0|0:0,0:0:0:0:
168,212,68722,5,8,0:0:0:0:
392,56,82339,6,0,P|352:76|256:68,1,140,8|0,0:0|0:0,0:0:0:0:
168,36,82977,2,0,L|124:176,1,140,8|0,0:0|0:0,0:0:0:0:
152,264,83615,2,0,B|224:256|224:256|300:280,1,140,8|8,0:0|0:0,0:0:0:0:
424,336,84360,1,0,0:0:0:0:
472,196,84679,1,0,0:0:0:0:
408,124,84892,6,0,L|380:84,3,35,0|0|0|0,0:0|0:0|0:0|0:0,0:0:0:0:
340,80,85317,2,0,L|312:40,3,35,0|0|0|0,0:0|0:0|0:0|0:0,0:0:0:0:
260,32,85743,6,0,B|224:40|192:32|192:32|120:72,1,140,8|0,0:0|0:0,0:0:0:0:
72,148,86381,2,0,P|100:216|100:284,1,140,8|0,0:0|0:0,0:0:0:0:
192,320,87019,2,0,P|228:336|340:312,1,140,8|8,0:0|0:0,0:0:0:0:
436,224,87764,1,0,0:0:0:0:
392,84,88083,6,0,L|352:60,2,35,0|0|0,0:0|0:0|0:0,0:0:0:0:
388,132,88402,2,0,L|357:150,2,35,0|0|0,0:0|0:0|0:0,0:0:0:0:
436,116,88722,2,0,P|472:124|500:148,1,70
504,244,89147,6,0,P|484:284|380:304,1,140,8|0,0:0|0:0,0:0:0:0:
316,256,89785,2,0,P|248:266|209:322,1,140,8|0,0:0|0:0,0:0:0:0:
112,332,90424,2,0,L|64:188,1,140,8|8,0:0|0:0,0:0:0:0:
80,52,91168,1,0,0:0:0:0:
224,32,91488,1,0,0:0:0:0:
316,68,91700,6,0,L|352:88,3,35,0|0|0|0,0:0|0:0|0:0|0:0,0:0:0:0:
352,132,92126,2,0,L|388:152,3,35,0|0|0|0,0:0|0:0|0:0|0:0,0:0:0:0:
436,180,92551,6,0,B|420:224|420:224|456:328,1,140,8|0,0:0|0:0,0:0:0:0:
356,340,93190,2,0,P|308:352|212:336,1,140,8|0,0:0|0:0,0:0:0:0:
124,312,93828,2,0,L|76:152,1,140,8|8,0:0|0:0,0:0:0:0:
172,60,94573,1,0,0:0:0:0:
312,100,94892,1,8,0:0:0:0:
308,200,95105,6,0,L|308:252,6,35,0|0|0|0|0|0|0,0:0|0:0|0:0|0:0|0:0|0:0|0:0,0:0:0:0:
308,328,95956,6,0,P|256:312|212:308,1,70,8|0,0:0|0:0,0:0:0:0:
144,324,96381,1,0,0:0:0:0:
76,256,96594,2,0,P|84:212|76:148,1,105,0|0,0:0|0:0,0:0:0:0:
152,28,97232,1,4,3:3:0:0:
152,28,97339,1,0,0:0:0:0:
152,28,97445,1,0,0:0:0:0:
240,72,97658,6,0,B|236:112|236:112|248:148,2,70,8|0|0,0:0|0:0|0:0,0:0:0:0:
316,168,98296,2,0,P|280:208|208:204,1,105
88,192,98934,1,4,3:3:0:0:
88,192,99041,1,0,0:0:0:0:
88,192,99147,1,0,0:0:0:0:
84,292,99360,6,0,P|87:326|83:361,1,70,8|0,0:0|0:0,0:0:0:0:
180,368,99785,1,0,0:0:0:0:
276,360,99998,2,0,L|380:320,1,105
472,212,100637,1,4,3:3:0:0:
472,212,100743,1,0,0:0:0:0:
472,212,100849,1,0,0:0:0:0:
396,148,101062,6,0,L|336:112,2,70,8|0|0,0:0|0:0|0:0,0:0:0:0:
284,176,101700,2,0,L|380:236,1,105
236,280,102339,1,4,3:3:0:0:
236,280,102445,1,0,0:0:0:0:
236,280,102551,1,0,0:0:0:0:
144,244,102764,6,0,L|68:188,1,70,8|0,0:0|0:0,0:0:0:0:
72,104,103190,1,0,0:0:0:0:
160,64,103402,2,0,P|212:68|280:44,1,105
408,28,104041,1,4,3:3:0:0:
408,28,104147,1,0,0:0:0:0:
408,28,104254,1,0,0:0:0:0:
396,124,104466,6,0,B|370:149|370:149|358:181,2,70,8|0|0,0:0|0:0|0:0,0:0:0:0:
412,240,105105,2,0,P|340:256|296:224,1,105
244,116,105743,1,4,3:3:0:0:
244,116,105849,1,0,0:0:0:0:
244,116,105956,1,0,0:0:0:0:
192,200,106168,6,0,L|140:272,2,70,8|0|0,0:0|0:0|0:0,0:0:0:0:
244,116,106807,1,0,0:0:0:0:
336,88,107019,2,0,L|396:104,3,35
420,88,107445,2,0,P|416:52|408:12,1,70,4|0,3:3|0:0,0:0:0:0:
312,16,107871,6,0,L|232:16,1,70,8|0,0:0|0:0,0:0:0:0:
156,60,108296,1,0,0:0:0:0:
92,132,108509,1,0,0:0:0:0:
56,224,108722,2,0,L|40:276,3,35
36,304,109147,2,0,P|100:340|112:340,1,70,4|0,3:3|0:0,0:0:0:0:
192,332,109573,6,0,L|240:280,2,70,8|0|0,0:0|0:0|0:0,0:0:0:0:
288,348,110211,2,0,L|336:288,1,70
392,216,110637,1,0,0:0:0:0:
392,216,110743,1,0,0:0:0:0:
392,216,110849,1,4,3:3:0:0:
372,120,111062,1,0,0:0:0:0:
288,68,111275,6,0,P|240:72|200:60,2,70,8|0|0,0:0|0:0|0:0,0:0:0:0:
292,168,111913,2,0,P|236:172|204:164,1,70
124,164,112339,1,0,0:0:0:0:
124,164,112445,1,0,0:0:0:0:
124,164,112551,1,4,3:3:0:0:
100,260,112764,1,0,0:0:0:0:
180,316,112977,6,0,P|240:292|264:292,1,70,8|0,0:0|0:0,0:0:0:0:
340,308,113402,1,0,0:0:0:0:
416,248,113615,2,0,L|436:164,1,70
384,88,114041,1,0,0:0:0:0:
384,88,114147,1,0,0:0:0:0:
384,88,114254,1,4,3:3:0:0:
288,64,114466,1,0,0:0:0:0:
192,92,114679,6,0,L|164:168,2,70,8|0|0,0:0|0:0|0:0,0:0:0:0:
224,240,115317,2,0,L|248:160,1,70
344,180,115743,1,0,0:0:0:0:
344,180,115849,1,0,0:0:0:0:
344,180,115956,1,4,3:3:0:0:
408,252,116168,1,0,0:0:0:0:
460,168,116381,6,0,L|476:80,1,70,8|0,0:0|0:0,0:0:0:0:
396,36,116807,2,0,L|376:116,1,70
280,104,117232,1,0,0:0:0:0:
184,120,117445,1,0,0:0:0:0:
184,120,117551,1,0,0:0:0:0:
184,120,117658,1,4,3:3:0:0:
120,192,117871,1,0,0:0:0:0:
156,284,118083,6,0,P|200:276|256:276,2,70,8|0|0,0:0|0:0|0:0,0:0:0:0:
208,200,118722,2,0,P|244:192|300:200,1,70
364,240,119147,1,0,0:0:0:0:
364,240,119254,1,0,0:0:0:0:
364,240,119360,1,4,3:3:0:0:
456,200,119573,1,0,0:0:0:0:
436,76,119785,6,0,B|400:44|368:44|368:44|304:56,1,140,8|0,0:0|0:0,0:0:0:0:
216,96,120424,1,0,0:0:0:0:
160,176,120636,2,0,P|124:128|132:32,1,140,0|4,0:0|3:3,0:0:0:0:
216,96,121275,1,0,0:0:0:0:
232,192,121488,6,0,P|200:240|120:240,1,140,8|0,0:0|0:0,0:0:0:0:
32,208,122126,1,0,0:0:0:0:
68,300,122339,2,0,P|136:332|208:324,1,140,0|4,0:0|3:3,0:0:0:0:
292,292,122977,1,0,0:0:0:0:
368,192,123190,6,0,B|392:156|376:120|376:120|396:80|376:48,1,140,8|0,0:0|0:0,0:0:0:0:
284,48,123828,2,0,L|200:168,1,140,8|0,0:0|0:0,0:0:0:0:
116,204,124466,2,0,P|160:248|240:252,1,140,4|8,3:3|0:0,0:0:0:0:
380,240,125211,1,0,0:0:0:0:
480,348,125530,1,8,0:0:0:0:
352,352,125743,6,0,L|312:352,3,35
272,308,126168,2,0,L|232:308,3,35,8|0|0|0,0:0|0:0|0:0|0:0,0:0:0:0:
188,268,126594,6,0,P|144:252|88:168,1,140,8|0,0:0|0:0,0:0:0:0:
164,112,127232,2,0,B|228:72|228:72|284:8,1,140,8|0,0:0|0:0,0:0:0:0:
352,80,127871,2,0,P|388:132|460:116,1,140,4|8,3:3|0:0,0:0:0:0:
480,264,128615,1,0,0:0:0:0:
360,348,128934,1,8,0:0:0:0:
236,336,129147,6,0,L|180:300,3,35
196,256,129573,2,0,L|140:220,3,35,8|0|0|0,0:0|0:0|0:0|0:0,0:0:0:0:
132,184,129998,6,0,P|128:132|144:92,1,70,8|0,0:0|0:0,0:0:0:0:
164,76,130317,1,0,0:0:0:0:
208,56,130424,2,0,L|280:32,1,70,0|8,0:0|0:0,0:0:0:0:
372,56,130849,1,0,0:0:0:0:
372,56,130956,1,0,0:0:0:0:
372,56,131062,1,0,0:0:0:0:
416,144,131275,2,0,L|460:228,1,70,4|0,3:3|0:0,0:0:0:0:
404,296,131700,6,0,P|368:300|328:328,1,70,8|0,0:0|0:0,0:0:0:0:
296,344,132019,1,0,0:0:0:0:
248,360,132126,2,0,L|188:304,1,70,0|8,0:0|0:0,0:0:0:0:
128,244,132551,2,0,L|96:208,3,35
104,156,132977,2,0,L|72:120,3,35,8|0|0|0,0:0|0:0|0:0|0:0,0:0:0:0:
48,76,133402,6,0,P|84:48|136:28,1,70,8|0,0:0|0:0,0:0:0:0:
152,24,133722,1,0,0:0:0:0:
200,36,133828,2,0,P|224:72|264:96,1,70,0|8,0:0|0:0,0:0:0:0:
324,148,134254,1,0,0:0:0:0:
324,148,134360,1,0,0:0:0:0:
324,148,134466,1,0,0:0:0:0:
352,244,134679,2,0,P|396:216|416:184,1,70,4|0,3:3|0:0,0:0:0:0:
356,316,135105,6,0,P|320:312|280:268,1,70,8|0,0:0|0:0,0:0:0:0:
260,256,135424,1,0,0:0:0:0:
224,224,135530,2,0,L|164:276,1,70,0|8,0:0|0:0,0:0:0:0:
72,264,135956,2,0,L|24:228,3,35,0|0|0|0,0:0|0:0|0:0|0:0,0:0:0:0:
36,180,136381,2,0,L|84:144,3,35,8|0|0|0,0:0|0:0|0:0|0:0,0:0:0:0:
120,128,136807,5,0,0:0:0:0:
