osu file format v14

[General]
AudioFilename: Levi Theme.mp3
AudioLeadIn: 0
PreviewTime: 95743
Countdown: 0
SampleSet: Soft
StackLeniency: 0.7
Mode: 0
LetterboxInBreaks: 0
WidescreenStoryboard: 0

[Editor]
Bookmarks: 98722
DistanceSpacing: 1.1
BeatDivisor: 4
GridSize: 4
TimelineZoom: 1

[Metadata]
Title:Shingeki st-hrn-egt20130629 Kyojin
TitleUnicode:進撃st-hrn-egt20130629巨人
Artist:Hiroyuki Sawano
ArtistUnicode:澤野弘之
Creator:-Nya-
Version:Easy
Source:進撃の巨人
Tags:Shingeki no Kyojin levi captain annie mikasa ackerman ost soundtrack attack on titan
BeatmapID:845281
BeatmapSetID:349867

[Difficulty]
HPDrainRate:2
CircleSize:3
OverallDifficulty:2
ApproachRate:3
SliderMultiplier:1
SliderTickRate:1

[Events]
//Background and Video events
0,0,"Levi and Mikasa attack Female.jpg",0,0
//Break Periods
2,68922,80899
//Storyboard Layer 0 (Background)
//Storyboard Layer 1 (Fail)
//Storyboard Layer 2 (Pass)
//Storyboard Layer 3 (Foreground)
//Storyboard Sound Samples

[TimingPoints]
637,425.531914893617,4,2,1,50,1,0
82339,-100,4,2,1,20,0,0
84360,-100,4,2,1,15,0,0
84892,-100,4,2,1,20,0,0
85743,-100,4,2,1,35,0,0
87764,-100,4,2,1,30,0,0
88083,-100,4,2,1,25,0,0
89147,-100,4,2,1,40,0,0
91168,-100,4,2,1,30,0,0
91700,-100,4,2,1,35,0,0
92551,-100,4,2,1,45,0,0
94573,-100,4,2,1,35,0,0
95105,-100,4,2,1,20,0,0
95956,-100,4,2,1,70,0,1
123190,-100,4,2,1,50,0,0

[Colours]
Combo1 : 255,255,136
Combo2 : 0,121,121
Combo3 : 130,192,255
Combo4 : 151,75,0

[HitObjects]
108,104,637,6,0,B|208:88|208:88|308:120,1,200,8|0,0:0|0:0,0:0:0:0:
392,184,1913,1,8,0:0:0:0:
380,292,2339,2,0,P|368:324|224:364,1,200,8|0,0:0|0:0,0:0:0:0:
144,288,3615,1,8,0:0:0:0:
96,188,4041,6,0,B|100:88|100:88|84:16,2,150,8|8|8,0:0|0:0|0:0,0:0:0:0:
204,196,5743,2,0,L|208:120,2,75,8|0|8,0:0|0:0|0:0,0:0:0:0:
228,248,6594,2,0,B|328:248|328:248|432:264,1,200,0|8,0:0|0:0,0:0:0:0:
484,108,8083,6,0,L|336:84,1,150,8|8,0:0|0:0,0:0:0:0:
240,136,9147,2,0,L|209:218,2,75,8|0|8,0:0|0:0|0:0,0:0:0:0:
244,80,9998,2,0,P|200:48|76:100,1,200,0|8,0:0|0:0,0:0:0:0:
76,236,11488,6,0,B|116:320|116:320|128:380,1,150,8|8,0:0|0:0,0:0:0:0:
236,352,12551,2,0,L|220:272,2,75,8|0|8,0:0|0:0|0:0,0:0:0:0:
288,372,13402,2,0,P|356:356|404:240,1,200,0|8,0:0|0:0,0:0:0:0:
396,164,14573,5,0,0:0:0:0:
356,92,14892,2,0,P|324:68|272:52,1,75
208,48,15530,1,4,3:3:0:0:
148,140,15956,6,0,B|172:172|172:172|192:220,1,75,8|2,0:0|0:0,0:0:0:0:
208,284,16594,2,0,P|256:308|300:308,1,75
360,304,17232,1,4,3:3:0:0:
408,204,17658,6,0,P|408:152|416:128,1,75,8|2,0:0|0:0,0:0:0:0:
384,56,18296,2,0,L|296:76,1,75
232,96,18934,1,4,3:3:0:0:
128,128,19360,6,0,B|120:172|120:172|120:216,1,75,8|2,0:0|0:0,0:0:0:0:
132,284,19998,2,0,L|184:352,1,75
260,356,20636,1,4,3:3:0:0:
356,300,21062,6,0,L|384:212,1,75,8|2,0:0|0:0,0:0:0:0:
396,148,21700,2,0,P|360:112|248:92,1,150,0|4,0:0|3:3,0:0:0:0:
156,108,22764,6,0,P|152:144|144:184,1,75,8|2,0:0|0:0,0:0:0:0:
148,264,23402,2,0,P|184:308|284:316,1,150,0|4,0:0|3:3,0:0:0:0:
372,276,24466,6,0,P|404:244|420:204,1,75,8|2,0:0|0:0,0:0:0:0:
436,136,25105,2,0,B|380:116|380:116|288:64,1,150,0|4,0:0|3:3,0:0:0:0:
192,64,26168,6,0,L|136:124,1,75,8|2,0:0|0:0,0:0:0:0:
116,196,26807,2,0,B|126:228|170:248|170:248|174:284|206:308,1,150,0|4,0:0|3:3,0:0:0:0:
308,356,27871,5,8,0:0:0:0:
404,300,28296,2,0,P|436:248|412:148,2,150,0|0|8,0:0|0:0|0:0,0:0:0:0:
296,272,29998,2,0,L|320:152,1,100
336,64,30849,1,8,0:0:0:0:
232,24,31275,5,8,0:0:0:0:
124,52,31700,2,0,B|64:96|64:96|28:168,2,150,0|0|8,0:0|0:0|0:0,0:0:0:0:
232,24,33402,2,0,L|260:128,1,100
288,228,34254,1,8,0:0:0:0:
320,332,34679,5,8,0:0:0:0:
208,332,35105,2,0,B|136:320|136:320|44:340,2,150,0|0|8,0:0|0:0|0:0,0:0:0:0:
252,232,36807,2,0,L|144:212,1,100
44,192,37658,1,8,0:0:0:0:
60,84,38083,5,8,0:0:0:0:
164,48,38509,2,0,P|200:64|304:44,2,150,0|0|8,0:0|0:0|0:0,0:0:0:0:
152,156,40211,2,0,P|200:168|272:164,1,100
352,124,41062,1,8,0:0:0:0:
460,104,41488,6,0,B|492:252|492:252|472:308,1,200,8|2,0:0|0:0,0:0:0:0:
372,336,42764,1,8,0:0:0:0:
264,344,43190,6,0,P|204:312|220:192,1,200,8|2,0:0|0:0,0:0:0:0:
300,124,44466,1,8,0:0:0:0:
332,20,44892,6,0,B|388:36|408:100|408:100|480:168,1,200,8|2,0:0|0:0,0:0:0:0:
484,268,46168,1,8,0:0:0:0:
388,320,46594,6,0,B|324:344|324:344|184:356,1,200,8|2,0:0|0:0,0:0:0:0:
100,300,47871,1,8,0:0:0:0:
84,192,48296,6,0,B|96:144|144:116|144:116|156:72|220:44,1,200,8|2,0:0|0:0,0:0:0:0:
324,40,49573,1,8,0:0:0:0:
392,128,49998,6,0,P|376:176|440:308,1,200,8|2,0:0|0:0,0:0:0:0:
336,352,51275,1,8,0:0:0:0:
228,336,51700,6,0,B|136:284|136:284|32:264,1,200,8|2,0:0|0:0,0:0:0:0:
24,156,52977,1,8,0:0:0:0:
84,64,53402,6,0,B|136:40|180:60|180:60|240:36|292:60,1,200,8|2,0:0|0:0,0:0:0:0:
360,128,54679,1,8,0:0:0:0:
392,232,55105,6,0,L|352:336,1,100,8|0,0:0|0:0,0:0:0:0:
246,325,55956,2,0,L|210:231,1,100,2|8,0:0|0:0,0:0:0:0:
175,127,56807,6,0,P|199:75|251:55,1,100,8|0,0:0|0:0,0:0:0:0:
336,100,57658,2,0,L|400:184,1,100,2|8,0:0|0:0,0:0:0:0:
408,288,58509,6,0,P|368:296|296:288,2,100,8|0|2,0:0|0:0|0:0,0:0:0:0:
476,204,59785,1,8,0:0:0:0:
456,96,60211,6,0,B|416:64|416:64|352:40,2,100,8|0|2,0:0|0:0|0:0,0:0:0:0:
388,184,61488,1,8,0:0:0:0:
280,188,61913,6,0,P|248:200|176:184,1,100,8|0,0:0|0:0,0:0:0:0:
100,116,62764,2,0,P|52:103|4:117,1,100,2|8,0:0|0:0,0:0:0:0:
56,216,63615,6,0,P|68:280|60:336,1,100,8|0,0:0|0:0,0:0:0:0:
164,368,64466,2,0,L|256:320,1,100,2|8,0:0|0:0,0:0:0:0:
316,232,65317,6,0,B|316:188|260:156|260:156|320:136|328:88,1,200,8|2,0:0|0:0,0:0:0:0:
424,36,66594,1,8,0:0:0:0:
460,140,67019,6,0,P|432:208|464:336,1,200,8|2,0:0|0:0,0:0:0:0:
348,340,68296,1,8,0:0:0:0:
240,328,68722,5,8,0:0:0:0:
88,56,82339,6,0,P|112:76|276:40,1,200,8|0,0:0|0:0,0:0:0:0:
372,24,83615,1,8,0:0:0:0:
420,124,84041,2,0,L|484:272,2,150,8|0|0,0:0|0:0|0:0,0:0:0:0:
312,132,85743,6,0,L|384:320,1,200,8|0,0:0|0:0,0:0:0:0:
280,352,87019,1,8,0:0:0:0:
176,320,87445,2,0,B|124:276|88:268|88:268|88:216|60:160,1,200,8|0,0:0|0:0,0:0:0:0:
96,68,88722,1,0,0:0:0:0:
200,40,89147,6,0,P|232:52|408:32,1,200,8|0,0:0|0:0,0:0:0:0:
496,84,90424,1,8,0:0:0:0:
476,192,90849,2,0,B|440:288|440:288|400:336,2,150,8|0|0,0:0|0:0|0:0,0:0:0:0:
380,140,92551,6,0,P|304:192|308:308,1,200,8|0,0:0|0:0,0:0:0:0:
204,348,93828,1,8,0:0:0:0:
108,296,94254,2,0,P|105:199|27:143,1,200,8|0,0:0|0:0,0:0:0:0:
232,64,95956,6,0,P|328:56|392:64,2,150,8|0|4,0:0|0:0|3:3,0:0:0:0:
144,128,97658,2,0,L|120:232,1,100,8|0,0:0|0:0,0:0:0:0:
160,328,98509,1,0,0:0:0:0:
268,316,98934,1,4,3:3:0:0:
356,248,99360,6,0,L|356:96,2,150,8|0|4,0:0|0:0|3:3,0:0:0:0:
388,352,101062,2,0,P|440:324|460:288,1,100,8|0,0:0|0:0,0:0:0:0:
464,180,101913,1,0,0:0:0:0:
432,76,102339,1,4,3:3:0:0:
328,40,102764,6,0,P|268:20|172:116,1,200,8|0,0:0|0:0,0:0:0:0:
148,208,104041,1,4,3:3:0:0:
200,304,104466,2,0,B|292:332|292:332|408:328,1,200,8|0,0:0|0:0,0:0:0:0:
444,228,105743,1,4,3:3:0:0:
412,124,106168,6,0,L|320:56,1,100,8|0,0:0|0:0,0:0:0:0:
221,64,107019,2,0,L|140:123,1,100,0|4,0:0|3:3,0:0:0:0:
96,224,107871,2,0,P|116:272|104:324,1,100,8|0,0:0|0:0,0:0:0:0:
216,340,108722,2,0,L|320:292,1,100,0|4,0:0|3:3,0:0:0:0:
412,260,109573,6,0,B|420:208|384:172|384:172|428:140|420:80,1,200,8|0,0:0|0:0,0:0:0:0:
324,28,110849,1,4,3:3:0:0:
252,112,111275,2,0,L|128:268,1,200,8|0,0:0|0:0,0:0:0:0:
64,360,112551,1,4,3:3:0:0:
176,364,112977,6,0,B|280:352|280:352|384:364,2,200,8|0|8,0:0|0:0|0:0,0:0:0:0:
64,360,115105,2,0,L|60:256,1,100
84,152,115956,1,4,3:3:0:0:
176,92,116381,6,0,B|224:84|272:108|272:108|312:76|368:72,1,200,8|0,0:0|0:0,0:0:0:0:
472,100,117658,1,4,3:3:0:0:
476,208,118083,2,0,P|420:244|356:360,1,200,8|0,0:0|0:0,0:0:0:0:
248,364,119360,1,4,3:3:0:0:
140,336,119785,6,0,L|48:264,1,100,8|0,0:0|0:0,0:0:0:0:
40,168,120636,2,0,P|72:140|104:84,1,100,0|4,0:0|3:3,0:0:0:0:
211,91,121488,2,0,P|235:134|272:167,1,100,8|0,0:0|0:0,0:0:0:0:
376,204,122339,2,0,L|460:144,1,100,0|4,0:0|3:3,0:0:0:0:
468,256,123190,6,0,L|340:352,1,150,8|8,0:0|0:0,0:0:0:0:
184,340,124466,1,4,3:3:0:0:
140,240,124892,2,0,L|192:156,1,75,8|0,0:0|0:0,0:0:0:0:
228,108,125530,2,0,P|296:128|380:120,1,150,8|8,0:0|0:0,0:0:0:0:
484,140,126594,6,0,B|468:216|468:216|492:284,1,150,8|8,0:0|0:0,0:0:0:0:
336,344,127871,1,4,3:3:0:0:
228,332,128296,2,0,P|176:284|152:272,1,75,8|0,0:0|0:0,0:0:0:0:
96,252,128934,2,0,L|128:104,1,150,8|8,0:0|0:0,0:0:0:0:
224,52,129998,6,0,B|268:64|284:124|284:124|340:120|384:164,1,200,8|0,0:0|0:0,0:0:0:0:
436,248,131275,1,4,3:3:0:0:
344,308,131700,2,0,P|292:328|144:316,1,200,8|0,0:0|0:0,0:0:0:0:
52,272,132977,1,8,0:0:0:0:
60,164,133402,6,0,L|180:68,2,150,8|8|4,0:0|0:0|3:3,0:0:0:0:
132,248,135105,2,0,L|264:140,2,150,8|0|8,0:0|0:0|0:0,0:0:0:0:
44,316,136807,5,0,0:0:0:0:
