osu file format v9

[General]
AudioFilename: Okami OST - Oki the Hero (Okikurmi the Hero).mp3
AudioLeadIn: 2000
PreviewTime: 21744
Countdown: 0
SampleSet: Soft
StackLeniency: 0.7
Mode: 0
LetterboxInBreaks: 1
StoryFireInFront: 0
SkinPreference:okami
EpilepsyWarning: 1

[Editor]
Bookmarks: 188,7632,10966,21632,26966,32299,42966,64299,69632,75188,80299
DistanceSpacing: 1
BeatDivisor: 3
GridSize: 4

[Metadata]
Title:Oki the Hero
Artist:Hiroshi Yamaguchi
Creator:DarkDunskin
Version:Easy
Source:Okami
Tags:Okikurmi Kamui Oina Amaterasu Issun Lechku Nechku p3n Tenshi-Nyan Lech Nech Shiranui Soundtrack

[Difficulty]
HPDrainRate:2
CircleSize:3
OverallDifficulty:2
ApproachRate:4
SliderMultiplier:1.2
SliderTickRate:1

[Events]
//Background and Video events
0,0,"Osu-BG.jpg"
//Break Periods
2,43277,52424
//Storyboard Layer 0 (Background)
Sprite,Background,Centre,"Osu-BG.jpg",320,240 F,0,0,89744,0 S,0,85744,,0.8
Sprite,Background,CentreLeft,"sb\Ezofuji1.jpg",640,240 L,410,1 M,0,0,785,750,240,0,240 F,2,0,1100,0,1 L,7077,1 F,0,0,,1,0
Sprite,Background,CentreLeft,"sb\Onimountains.jpg",640,240 L,7077,1 M,0,0,,0,240 F,2,0,,0,1 L,11077,1 F,0,0,1846,1,0
Sprite,Background,CentreLeft,"sb\Kamui.jpg",640,240 L,11077,1 M,0,0,785,750,240,0,240 F,2,0,1100,0,1 L,21744,1 F,0,0,,1,0
Sprite,Background,CentreRight,"sb\Shiranui.jpg",640,240 L,21744,1 F,2,0,1100,0,1 M,1,0,10666,640,240,915,240 F,0,32410,,1,0
Sprite,Background,Centre,"sb\Shiranuihit.jpg",640,240 M,1,32410,43077,355,255,335,215 F,1,32410,43077,1
Sprite,Background,Centre,"sb\shiranuitot.jpg",640,240 M,0,43077,53744,330,220,350,240 F,1,43077,53744,1 F,0,53744,55590,1,0
Sprite,Background,CentreLeft,"sb\Ammyattack.jpg",640,240 L,53744,1 M,0,0,785,750,240,0,240 F,2,0,1100,0,1 L,56410,1 F,0,0,3333,1,0
Sprite,Background,Centre,"sb\Epicoki.jpg",640,240 M,1,59077,64410,380,360,280,380 F,0,59077,64410,1
Sprite,Background,BottomCentre,"sb\nechkudefeat.jpg",320,240 L,64410,1 F,2,0,1100,0,1 M,0,0,10667,320,371,300,390 L,75077,1 F,0,0,667,1,0
Sprite,Background,CentreLeft,"sb\LNdefeated.jpg",640,240 L,75077,1 M,0,0,785,750,240,0,240 F,2,0,1100,0,1 L,85744,1 F,0,0,,1,0
//Storyboard Layer 1 (Fail)
//Storyboard Layer 2 (Pass)
//Storyboard Layer 3 (Foreground)
Sprite,Foreground,CentreLeft,"sb\Lechku.jpg",0,0 L,3077,1 M,1,0,4000,0,0,0,240 F,1,0,4000,0,1 L,7077,1 M,1,0,4000,0,240,0,480 F,1,0,4000,1,0
Sprite,Foreground,CentreRight,"sb\Nechku.jpg",640,480 L,3077,1 M,1,0,4000,640,480,640,240 F,1,0,4000,0,1 L,7077,1 M,1,0,4000,640,240,640,0 F,1,0,4000,1,0
Sprite,Foreground,Centre,"sb\Oki-sama.png",640,480 M,1,13077,13744,480,250,460,250 F,1,13077,13744,0,1 F,1,13744,19077,1
Sprite,Foreground,Centre,"sb\amater3.png",640,480 M,1,15744,16410,260,275,240,275 F,1,15744,16410,0,1 F,1,16410,21744,1
Sprite,Foreground,Centre,"sb\Okiwolf.png",640,480 M,1,19077,,460,275 F,1,19077,19244,0,1 F,1,19244,21744,1
Sprite,Foreground,CentreRight,"sb\LN.png",640,480 L,21744,1 F,2,0,1100,0,1 M,1,0,10666,149,240,424,240 F,0,32410,,1,0
Sprite,Foreground,BottomRight,"sb\Zeiger1.png",640,480 L,21744,1 F,2,0,1100,0,1 R,1,0,10000,0,19.8 M,1,0,10666,-128,236,148,236 F,0,32410,,1,0
Sprite,Foreground,TopRight,"sb\Zeiger2.png",640,480 L,21744,1 F,2,0,1100,0,1 R,1,0,10000,0.95,2.6 M,1,0,10666,-128,236,148,236 F,0,32410,,1,0
Sprite,Foreground,TopRight,"sb\LNoverlay.png",640,480 L,21744,1 F,2,0,1100,0,1 M,1,0,10666,-34,244,241,244 F,0,32410,,1,0
Sprite,Foreground,BottomCentre,"sb\white.jpg",640,480 M,1,32410,,320,109 F,1,32410,,0,1 C,0,32410,,0,0,0 V,0,32410,,1,0.227083 F,1,32410,85744,1
Sprite,Foreground,TopCentre,"sb\white.jpg",640,480 M,1,32410,,320,371 F,1,32410,,0,1 C,0,32410,,0,0,0 V,0,32410,,1,0.227083 F,1,32410,85744,1
Sprite,Foreground,CentreRight,"sb\Lechkuc.jpg",0,0 L,55744,1 M,1,0,3333,320,0,320,240 F,1,0,3333,0,1 L,59077,1 M,1,0,933,320,240,320,480 F,1,0,933,1,0
Sprite,Foreground,CentreLeft,"sb\Nechkuc.jpg",640,480 L,55744,1 M,1,0,3333,320,480,320,240 F,1,0,3333,0,1 L,59077,1 M,1,0,933,320,240,320,0 F,1,0,933,1,0
Sprite,Foreground,CentreRight,"sb\scroll.png",640,240 L,410,1 M,2,0,250,730,250,590,250 M,0,250,850,590,250,0,250 L,11077,1 M,2,0,250,730,250,590,250 M,0,250,850,590,250,0,250 L,53744,1 M,2,0,250,730,250,590,250 M,0,250,850,590,250,0,250 L,75077,1 M,2,0,250,730,250,590,250 M,0,250,850,590,250,0,250
Sprite,Foreground,Centre,"SB\falling sakura.png",320,240 L,64410,1 M,0,0,5333,320,240,320,720 F,2,64410,65510,0,1
Sprite,Foreground,BottomCentre,"SB\falling sakura.png",320,240 L,63660,1 M,0,0,10666,320,0,320,960 P,0,64410,,H F,2,64410,65510,0,1
Sprite,Foreground,BottomCentre,"SB\falling sakura.png",320,240 L,68410,1 M,0,0,10666,320,0,320,960 F,2,68410,,0,1
Sprite,Foreground,BottomCentre,"SB\falling sakura.png",320,240 L,73160,1 M,0,0,10666,320,0,320,960 F,2,73160,,0,1
Sprite,Foreground,BottomCentre,"SB\falling sakura.png",320,240 L,78410,1 M,0,0,10666,320,0,320,960 F,2,78910,,0,1 F,2,85744,,1,0
Sprite,Foreground,BottomCentre,"SB\falling sakura.png",320,240 L,83160,1 M,0,0,10666,320,0,320,960 F,2,83160,,0,1 F,2,85744,,1,0
Sprite,Foreground,BottomRight,"sb\white.jpg",640,480 L,20410,1 F,1,0,1334,0,1 L,21744,1 F,1,0,1334,1,0 L,41744,1 F,1,0,937,0,1 L,43077,1 F,1,0,937,1,0 L,63077,1 F,1,0,1334,0,1 L,64410,1 F,1,0,1334,1,0 L,84410,1 F,1,0,1334,0,1 L,85744,1 F,1,0,1334,1,0 F,1,18910,19077,0,1 F,1,19077,19244,1,0 F,1,31744,31966,1,0 F,1,31966,32188,1,0 F,1,32188,32410,1,0 F,2,32410,33744,1,0
//Storyboard Sound Samples
Sample,410,3,"sb\scroll_flip.wav",45
Sample,11077,3,"sb\scroll_flip.wav",45
Sample,53744,3,"sb\scroll_flip.wav",45
Sample,75077,3,"sb\scroll_flip.wav",45
//Background Colour Transformations
3,100,163,162,255

[TimingPoints]
410.734662416388,666.666666666667,4,2,1,40,1,0
11077,-100,4,1,1,60,0,0
21744,-100,4,2,1,80,0,0
21966,-100,4,1,1,80,0,0
43077,-100,4,2,1,40,0,0
43244,-100,4,1,1,60,0,0
64410,-100,4,2,1,80,0,0
64577,-100,4,1,1,80,0,0
85744,-100,4,2,1,40,0,0

[Colours]
Combo1 : 111,113,215
Combo2 : 131,213,243
Combo3 : 153,174,232
Combo4 : 101,113,154

[HitObjects]
80,288,410,2,0,B|140:232|168:244|144:232|100:200|128:112|172:76,1,240,12|8
256,172,2410,1,10
349,86,3077,2,8,B|379:116|411:200|367:232|343:244|371:232|431:288,1,240
320,328,5077,1,10
200,324,5744,6,8,B|168:292|124:284|92:304|92:304|120:280|112:244|80:188,1,240
204,192,7744,1,10
228,76,8410,2,8,B|260:108|304:116|336:96|336:96|308:120|316:156|348:212,1,240
308,320,10410,1,10
188,320,11077,6,8,B|116:320|92:252,2,120
196,200,13077,1,4
212,80,13744,2,8,B|284:80|308:148,2,120
92,80,15744,1,4
120,196,16410,6,8,B|200:296,1,120
204,168,17744,1,8
256,60,18410,1,4
308,168,19077,5,8
317,289,19744,2,8,B|392:196,1,120
420,80,21077,1,4
480,184,21744,6,0,B|484:256|420:296,1,120,12|8
352,304,22855,1,8
352,304,23077,2,8,B|228:304,1,120,4|8
136,232,24410,6,0,B|136:160|188:112,1,120,12|8
252,92,25521,1,8
252,92,25744,2,8,B|376:92,1,120,4|8
428,189,27077,6,0,B|336:180|328:281,1,120,4|8
408,292,28188,1,8
408,292,28410,2,0,B|396:340|348:364|304:344,1,120,12|8
196,347,29744,6,0,B|165:359|112:335|104:291,1,120,4|8
181,244,30855,1,8
180,244,31077,2,0,B|152:180|85:188,1,120,12|8
132,76,32410,6,0,B|208:88|216:176,1,120,4|8
300,152,33521,1,8
300,152,33744,2,8,B|320:78|380:74,1,120,12|8
380,200,35077,6,0,B|372:268|312:292,1,120,4|8
192,300,36410,2,8,B|140:300|96:344,2,80,12|8|8
248,244,37744,6,0,B|248:180|184:128,1,120,4|8
248,76,38855,1,8
248,76,39077,2,0,B|284:124|353:123,1,120,12|8
256,192,40410,12,4,43077
376,192,53744,6,8,B|444:192|464:108,2,120,8|8|8
256,192,55744,1,4
136,192,56410,2,8,B|68:192|48:276,2,120,8|8|8
256,192,58410,1,4
256,312,59077,6,8,B|324:312|372:236,2,120
256,192,61077,1,4
256,72,61744,2,8,B|188:72|140:148,2,120
256,192,63744,1,4
176,284,64410,6,0,B|120:312|56:312,1,120,6|8
72,232,65521,1,8
72,232,65744,2,8,B|124:200|156:132,1,120,12|8
244,68,67077,6,8,B|304:84|362:64,1,120,4|8
436,112,68188,1,8
436,112,68410,2,0,B|397:157|340:182,1,120,12|8
446,219,69744,6,0,B|411:283|349:331,1,120,4|8
292,316,70855,1,8
292,316,71077,2,8,B|160:316,1,120,12|8
52,316,72410,6,0,B|87:252|149:204,1,120,4|8
64,172,73521,1,8
64,172,73744,2,0,B|102:126|159:101,1,120,12|8
280,96,75077,6,0,B|412:96,1,120,4|8
448,168,76188,1,8
448,168,76410,2,8,B|448:244|388:284,1,120,12|8
312,184,77744,6,8,B|252:228|252:296,1,120,4|8
184,328,79077,2,8,B|120:328|92:368,2,80,12|8|8
264,328,80410,6,8,B|392:328,1,120,12|8
484,320,81521,1,8
484,320,81744,2,0,B|474:252|414:228,1,120,12|8
256,192,83077,12,4,85744
