osu file format v12

[General]
AudioFilename: One Piece opening 14.mp3
AudioLeadIn: 0
PreviewTime: 27135
Countdown: 0
SampleSet: Normal
StackLeniency: 0.4
Mode: 0
LetterboxInBreaks: 1
WidescreenStoryboard: 1

[Editor]
Bookmarks: 71987,101775
DistanceSpacing: 1
BeatDivisor: 4
GridSize: 4
TimelineZoom: 1

[Metadata]
Title:We Go!
TitleUnicode:ウィーゴー!
Artist:Hiroshi Kitadani
ArtistUnicode:きただに ひろし
Creator:HeShu
Version:Hard
Source:One Piece
Tags:luffy ami opening
BeatmapID:300979
BeatmapSetID:116692

[Difficulty]
HPDrainRate:6
CircleSize:4
OverallDifficulty:6
ApproachRate:7
SliderMultiplier:1.4
SliderTickRate:2

[Events]
//Background and Video events
0,0,"BG.jpg",0,0
Video,0,"One Piece opening 14.avi"
//Break Periods
2,36879,38507
2,133016,133962
2,137106,138053
//Storyboard Layer 0 (Background)
//Storyboard Layer 1 (Fail)
//Storyboard Layer 2 (Pass)
//Storyboard Layer 3 (Foreground)
//Storyboard Sound Samples
//Background Colour Transformations
3,100,163,162,255

[TimingPoints]
545,340.909090909091,4,1,0,40,1,0
27135,340.909090909091,4,1,0,40,1,0
76225,-100,4,1,0,40,0,1
96680,-100,4,1,0,40,0,0
113044,-133.333333333333,4,1,0,40,0,0
121225,-100,4,1,0,60,0,0
123953,-100,4,1,0,60,0,1
145771,-100,4,1,0,60,0,0

[Colours]
Combo1 : 217,19,187
Combo2 : 255,0,0
Combo3 : 247,126,17
Combo4 : 221,226,10
Combo5 : 31,245,31
Combo6 : 24,168,245
Combo7 : 26,43,198

[HitObjects]
256,192,25772,12,4,27135,1:1:0:0:
460,192,27475,6,0,P|416:124|316:92,1,140,8|0,0:0|0:0,0:0:0:0:
228,60,28157,2,0,P|188:56|144:76,1,70,8|0,0:0|0:0,0:0:0:0:
108,112,28498,1,4,0:0:0:0:
232,172,28839,2,0,P|320:160|380:188,1,140,8|0,0:0|0:0,0:0:0:0:
244,248,29521,6,0,P|160:196|160:152,1,140,8|4,0:1|0:1,1:1:0:0:
192,104,30032,1,0,1:1:0:0:
260,84,30203,1,8,1:1:0:0:
328,84,30373,1,0,1:1:0:0:
392,108,30544,2,0,P|428:132|448:172,1,70
456,224,30885,1,0,1:1:0:0:
444,292,31055,1,0,1:1:0:0:
256,340,31566,5,8,1:1:0:0:
256,200,31907,1,0,1:1:0:0:
328,200,32078,2,0,P|320:168|292:140,1,70,0|8,0:1|0:1,1:1:0:0:
224,136,32419,2,0,B|140:152|184:200|184:200|136:248|224:272,1,210,0|8,0:0|0:0,1:1:0:0:
368,280,33271,2,0,B|348:348|264:352|252:336,1,140,0|8,0:1|0:1,1:1:0:0:
124,296,33953,6,0,P|88:232|88:208,1,70,4|0,0:0|0:0,1:1:0:0:
128,176,34294,2,0,P|148:200|164:240,1,70,8|0,0:0|0:0,1:1:0:0:
228,264,34635,2,0,P|232:216|224:196,1,70,0|0,0:0|0:0,1:1:0:0:
196,132,34975,2,0,P|240:128|264:140,1,70,8|0,0:0|0:0,1:1:0:0:
300,200,35316,2,0,P|336:144|300:80,1,140,4|8,0:0|0:0,1:1:0:0:
432,20,35998,6,0,P|475:149|420:275,1,280,0|4,0:0|0:0,0:0:0:0:
196,112,39407,6,0,P|128:128|76:172,1,140,4|8,0:0|0:0,0:0:0:0:
128,300,40089,2,0,P|136:224|188:192,1,140,0|8,0:0|0:0,3:0:0:0:
326,192,40771,2,0,P|381:232|384:300,1,140,4|8,0:0|0:0,3:0:0:0:
436,172,41453,2,0,P|383:127|316:112,1,140,0|8,0:0|0:0,0:0:0:0:
256,192,42135,12,8,44521,1:1:0:0:
392,72,44862,5,4,1:1:0:0:
436,128,45032,1,0,1:1:0:0:
468,192,45203,1,8,1:1:0:0:
436,256,45373,1,0,1:1:0:0:
392,312,45544,1,0,1:1:0:0:
116,312,46225,5,4,1:1:0:0:
44,192,46566,1,8,1:1:0:0:
116,72,46907,1,0,1:1:0:0:
160,128,47078,2,0,P|132:192|160:252,1,140
236,132,47760,2,0,P|216:76|184:60,1,70,0|8,0:1|0:1,1:1:0:0:
240,208,48271,5,0,1:1:0:0:
360,280,48612,1,8,1:1:0:0:
240,356,48953,1,4,1:1:0:0:
120,280,49294,2,0,P|92:252|84:224,1,70,8|0,0:0|0:0,0:0:0:0:
83,13,49975,5,8,1:1:0:0:
52,76,50146,1,0,1:1:0:0:
84,140,50316,1,4,1:1:0:0:
328,46,50657,2,0,P|334:80|328:115,1,70,0|8,0:1|0:1,1:1:0:0:
188,115,51169,2,0,P|179:81|188:48,1,70,8|0,0:1|0:1,1:1:0:0:
256,172,51680,5,4,1:1:0:0:
376,248,52021,1,8,1:1:0:0:
256,172,52362,1,0,1:1:0:0:
136,248,52703,1,8,1:1:0:0:
64,128,53044,2,0,P|128:76|208:60,1,140
329,60,53725,2,0,P|395:82|448:128,1,140
324,192,54407,5,4,0:0:0:0:
440,272,54748,1,8,0:0:0:0:
372,288,54919,1,0,0:0:0:0:
304,296,55089,2,0,P|248:256|224:192,1,140,0|8,0:0|0:0,0:0:0:0:
224,52,55771,1,8,0:0:0:0:
320,156,56112,1,0,0:0:0:0:
352,220,56282,1,0,0:0:0:0:
384,284,56453,2,0,P|312:328|256:340,1,140
256,200,57135,5,4,1:1:0:0:
132,268,57475,2,0,L|132:198,1,70,8|0,0:0|0:0,0:0:0:0:
132,128,57816,2,0,B|60:136|60:192|64:232,1,140,0|8,0:0|0:0,0:0:0:0:
132,348,58498,2,0,P|184:328|212:252,1,140,4|8,0:0|0:0,0:0:0:0:
256,144,59180,2,0,L|328:108,2,70,0|0|8,0:0|0:0|0:0,0:0:0:0:
256,284,59862,5,4,1:1:0:0:
124,332,60203,1,8,1:1:0:0:
164,276,60373,1,0,0:0:0:0:
156,240,60458,1,0,0:0:0:0:
132,216,60544,1,0,0:0:0:0:
196,192,60714,1,0,0:0:0:0:
148,140,60885,2,0,P|75:157|48:232,1,140,8|4,0:0|0:0,0:0:0:0:
124,332,61566,5,8,1:1:0:0:
256,380,61907,1,0,0:0:0:0:
388,332,62248,1,8,0:0:0:0:
256,284,62589,1,4,0:0:0:0:
388,332,62930,5,8,1:1:0:0:
348,276,63100,1,0,0:0:0:0:
356,240,63185,1,0,0:0:0:0:
380,216,63271,1,0,0:0:0:0:
316,192,63441,1,0,0:0:0:0:
364,140,63612,2,0,P|436:157|463:232,1,140,8|4,0:0|0:0,0:0:0:0:
256,212,64294,1,8,1:1:0:0:
136,76,64975,5,8,1:1:0:0:
136,76,65316,2,0,B|0:20|168:128|40:304|40:304|0:368|112:380|256:344|580:160|272:160|256:40|256:40|240:160|-60:160|256:344|408:384|512:368|472:304|472:304|352:136|512:20|376:76,1,1820,6|8,0:0|0:0,1:1:0:0:
256,184,70089,1,4,0:0:0:0:
256,328,70771,5,4,0:0:0:0:
256,328,71112,2,0,B|328:356|392:328,1,140,8|0,0:0|0:0,0:0:0:0:
256,328,71794,2,0,B|184:356|120:328,1,140,8|0,0:0|0:0,0:0:0:0:
220,232,72475,5,8,1:1:0:0:
289,230,72646,1,0,1:1:0:0:
308,164,72816,2,0,P|256:148|208:164,2,105
256,192,73498,12,0,75885,1:1:0:0:
256,24,76225,5,4,1:1:0:0:
256,164,76566,1,8,1:1:0:0:
116,152,76907,2,0,B|56:168|98:289|116:332,1,140,0|8,0:0|0:0,0:0:0:0:
80,348,77419,2,0,P|155:323|171:299,1,70,0|4,0:0|0:0,0:0:0:0:
256,244,77930,1,8,1:1:0:0:
368,328,78271,2,0,P|399:343|433:344,1,70
432,204,78782,5,4,1:1:0:0:
432,64,79123,2,0,P|396:52|352:76,2,70,0|8|0,0:1|0:1|0:1,1:1:0:0:
396,128,79635,2,0,P|344:132|320:108,1,70,0|0,0:1|0:1,1:1:0:0:
292,60,79975,1,0,1:1:0:0:
220,60,80146,1,0,1:1:0:0:
56,192,80657,5,8,0:0:0:0:
144,300,80998,1,0,0:0:0:0:
264,228,81339,1,8,0:0:0:0:
352,340,81680,1,4,0:0:0:0:
396,288,81850,2,0,L|452:224,2,70,0|8|0,0:0|0:0|0:0,0:0:0:0:
348,340,82362,2,0,P|324:280|368:220,1,140,0|4,0:0|0:0,0:0:0:0:
488,156,83044,5,4,0:0:0:0:
360,100,83385,1,8,0:0:0:0:
224,64,83725,2,0,P|152:56|80:92,1,140,0|8,0:0|0:0,0:0:0:0:
172,196,84407,2,0,P|145:263|161:342,1,140,4|8,0:0|0:0,0:0:0:0:
288,280,85089,2,0,P|346:322|426:327,1,140,0|8,0:0|0:0,3:0:0:0:
256,192,85771,12,4,87135,0:0:0:0:
396,192,87475,5,8,1:1:0:0:
340,64,87816,2,0,B|272:96|256:180,1,140,0|8,0:0|0:0,0:0:0:0:
228,236,88328,2,0,B|160:200|204:112,1,140,4|0,0:0|0:0,0:0:0:0:
232,52,88839,1,8,1:1:0:0:
120,136,89180,2,0,B|100:224|160:272,1,140,0|8,0:1|0:1,1:1:0:0:
208,308,89691,2,0,P|272:296|300:232,1,140,0|0,0:1|0:1,1:1:0:0:
300,160,90203,5,8,1:1:0:0:
404,256,90544,1,0,1:1:0:0:
404,116,90885,2,0,P|372:72|344:60,2,70,8|0|4,0:0|0:0|0:0,0:0:0:0:
272,64,91566,2,0,B|192:96|200:184,2,140,8|0|8,0:1|0:1|0:1,1:1:0:0:
140,108,92589,2,0,P|132:200|168:288,1,140,4|8,0:0|0:0,0:0:0:0:
268,180,93271,2,0,P|264:264|328:296,1,140,0|8,0:0|0:0,0:0:0:0:
432,152,93953,6,0,B|408:232|304:224,1,140,4|8,0:0|0:0,0:0:0:0:
186,224,94635,2,0,B|104:232|80:154,1,140,0|8,0:0|0:0,0:0:0:0:
216,136,95316,2,0,P|256:88|296:136,1,140,0|8,0:0|0:0,0:0:0:0:
188,44,95998,2,0,P|308:32|360:164,2,280,0|4|0,0:0|0:0|0:0,0:0:0:0:
101,142,99066,5,8,1:1:0:0:
137,79,99237,1,0,1:1:0:0:
196,41,99407,1,4,1:1:0:0:
164,176,99748,2,0,P|232:144|248:80,1,140,8|0,0:1|0:1,1:1:0:0:
164,176,100430,5,8,1:1:0:0:
224,214,100601,1,0,1:1:0:0:
259,275,100771,1,4,1:1:0:0:
126,236,101112,2,0,P|154:305|217:324,1,140,8|0,0:1|0:1,1:1:0:0:
352,340,101794,5,4,1:1:0:0:
411,302,101964,1,0,1:1:0:0:
447,239,102135,1,8,1:1:0:0:
308,260,102475,2,0,P|336:240|352:209,1,70,0|0,0:1|0:1,1:1:0:0:
388,72,102987,5,0,1:1:0:0:
256,28,103328,2,0,P|72:192|260:360,1,560,2|0,0:1|0:1,1:1:0:0:
376,256,105032,5,0,1:1:0:0:
344,200,105203,2,0,P|426:296|316:232,1,350,8|0,0:1|0:1,1:1:0:0:
136,256,106396,5,0,1:1:0:0:
168,200,106566,2,0,P|86:296|196:232,1,350,8|0,0:1|0:1,1:1:0:0:
408,220,107930,2,0,P|416:180|400:148,2,70,8|0|0,0:1|0:1|0:1,1:1:0:0:
272,192,108612,2,0,L|224:48,1,140,8|4,0:1|0:1,1:1:0:0:
184,192,109294,2,0,L|136:352,1,140,8|0,0:1|0:1,1:1:0:0:
104,192,109975,1,8,1:1:0:0:
256,192,110316,12,0,112703,1:1:0:0:
416,40,113044,6,0,B|480:104|472:280|424:336,1,315.000012016297,4|8,0:0|0:0,1:1:0:0:
424,336,114407,6,0,B|328:360|208:360|112:336,1,315.000012016297,4|8,0:0|0:0,1:1:0:0:
112,336,115771,6,0,B|48:240|48:128|120:40,1,315.000012016297,4|8,0:1|0:1,1:1:0:0:
156,140,117135,1,4,1:1:0:0:
156,272,117475,5,0,1:1:0:0:
256,328,117816,1,0,1:1:0:0:
360,276,118157,1,8,1:1:0:0:
256,287,118498,2,0,B|256:296|256:256|256:256|232:200|257:210|257:210|288:200|256:192|256:192|256:152|264:112,1,210.000008010865,4|0,0:1|0:1,1:1:0:0:
256,288,119691,5,0,1:1:0:0:
256,288,119777,1,0,1:1:0:0:
256,288,119862,1,4,1:1:0:0:
184,208,120203,1,8,1:1:0:0:
256,132,120544,1,0,1:1:0:0:
328,208,120885,1,8,1:1:0:0:
256,88,121225,1,4,1:1:0:0:
256,332,122078,5,0,1:1:0:0:
232,268,122248,1,8,1:1:0:0:
272,212,122419,1,0,1:1:0:0:
256,192,122589,12,4,123953,1:1:0:0:
432,68,124294,5,8,1:1:0:0:
432,68,124635,2,0,P|388:132|332:164,1,140,0|8,0:1|0:1,1:1:0:0:
372,300,125316,1,4,1:1:0:0:
336,164,125657,1,8,1:1:0:0:
336,164,125998,2,0,P|285:215|261:280,1,140,0|8,0:1|0:1,1:1:0:0:
124,292,126680,5,4,1:1:0:0:
176,164,127021,1,8,1:1:0:0:
280,72,127362,1,0,1:1:0:0:
336,164,127703,2,0,P|285:215|261:280,1,140,8|4,0:1|0:1,1:1:0:0:
336,164,128385,1,8,1:1:0:0:
432,64,128725,1,0,1:1:0:0:
384,112,128896,1,0,1:1:0:0:
284,212,129237,2,0,P|233:328|263:206,1,350,0|8,0:0|0:0,0:0:0:0:
132,60,130771,6,0,B|356:148|156:196|278:289,1,280,4|0,0:1|0:1,1:1:0:0:
375,63,132135,2,0,B|157:149|357:197|256:272,1,280,4|0,0:1|0:1,1:1:0:0:
104,32,134862,6,0,B|112:152|216:200|216:200|216:300,1,280,4|0,0:0|0:0,0:0:0:0:
408,32,136225,2,0,B|400:152|296:200|296:200|296:266,1,280,4|0,0:1|0:1,1:1:0:0:
184,40,138953,6,8,B|112:120|168:152|140:228|140:228|192:296|212:328,1,280,4|0,0:1|0:1,1:1:0:0:
256,344,139975,1,8,1:1:0:0:
256,344,140316,2,0,L|256:44,1,280,4|0,0:1|0:1,1:1:0:0:
324,292,141680,2,8,B|320:296|372:228|372:228|344:152|400:120|328:40,1,280,8|0,0:0|0:0,0:0:0:0:
256,192,143044,12,8,145089,1:1:0:0:
188,192,145430,5,8,1:1:0:0:
324,192,145771,1,4,1:1:0:0:
