osu file format v9

[General]
AudioFilename: Nao sei o nome.mp3
AudioLeadIn: 2000
PreviewTime: 23488
Countdown: 0
SampleSet: Soft
StackLeniency: 0.7
Mode: 0
LetterboxInBreaks: 1

[Editor]
Bookmarks: 11854,23488,35123,46757
DistanceSpacing: 1
BeatDivisor: 4
GridSize: 8

[Metadata]
Title:Digimon Care Theme
Artist:Hiroshi Izawa
Creator:Hyguys
Version:Ultimate
Source:Digimon World Championship
Tags:Terriemon Guilmon Calumon Takato Matsuki Henry Wong

[Difficulty]
HPDrainRate:6
CircleSize:4
OverallDifficulty:7
ApproachRate:8
SliderMultiplier:2.4
SliderTickRate:3

[Events]
//Background and Video events
0,0,"Digimon-1.jpg"
//Break Periods
//Storyboard Layer 0 (Background)
//Storyboard Layer 1 (Fail)
//Storyboard Layer 2 (Pass)
//Storyboard Layer 3 (Foreground)
Animation,Foreground,Centre,"ULTIMATE\champion.png",320,240,5,277,LoopForever _M,0,257,,320,410 _S,0,257,,1.5 _F,0,277,1939,0,1 _F,0,51780,53442,1,0
//Storyboard Sound Samples
//Background Colour Transformations
3,100,163,162,255

[TimingPoints]
277,415.513202646071,4,2,1,60,1,0
11854,-100,4,2,1,70,0,0
11891,415.513202646071,4,2,1,60,1,0
23488,-100,4,2,1,80,0,0
51919,-100,4,2,1,60,0,0
52473,-100,4,2,1,40,0,0
53165,-100,4,2,1,20,0,0
53442,-100,4,2,1,5,0,0

[Colours]
Combo1 : 255,36,36
Combo2 : 152,255,102
Combo3 : 5,5,240
Combo4 : 128,0,255
Combo5 : 255,255,151

[HitObjects]
40,56,277,2,0,B|80:80|72:136,1,80
32,192,554,1,0
64,264,692,2,0,B|104:296|136:264|168:232|216:280,1,160,2|0
256,344,1108,6,0,B|296:320|288:264,1,80
248,200,1385,1,0
320,152,1523,2,0,B|368:136|400:192,1,80,2|0
448,128,1800,1,0
392,72,1939,6,0,B|344:88|312:32,1,80,0|0
248,48,2216,1,0
184,88,2354,2,0,B|136:80|104:136,1,80,2|0
48,168,2631,1,0
96,232,2770,6,0,B|148:200|172:234|194:271|269:216,1,160
280,304,3185,2,0,B|328:288|336:232,1,80,2|0
304,176,3462,1,0
248,112,3601,6,0,B|366:29|504:114|558:275|431:385,1,480
376,344,4570,1,0
296,328,4709,2,0,B|256:352|216:328,1,80,0|2
256,256,4986,2,0,B|312:208|320:112,1,160
400,96,5401,5,0
440,168,5540,1,0
376,216,5678,2,0,B|400:248|448:256,1,80,2|0
376,304,5955,1,0
312,260,6094,6,0,B|272:248|256:200,1,80
216,280,6371,1,0
160,227,6509,2,0,B|122:252|79:219,1,80,2|0
128,160,6786,1,0
176,96,6925,6,0,B|213:64|252:95|289:126|328:80,1,160
386,40,7340,2,0,B|418:80|386:128,1,80,2|0
472,112,7617,1,0
472,184,7756,6,0,B|480:232|440:255,1,80
392,192,8033,1,0
320,232,8171,2,0,B|320:288|240:336,1,80,2|0
240,232,8448,1,0
176,192,8587,6,0,B|128:168|136:104,1,80
200,72,8864,1,0
280,88,9002,2,0,B|360:128,1,80,2|0
432,128,9279,1,0
432,208,9418,6,0,B|408:256|432:280|456:304|416:368,1,160
360,312,9833,2,0,B|320:261|258:300,1,80,2|0
224,336,10110,1,0
168,280,10249,6,0,B|104:288|88:216,1,80
162,204,10526,1,0
200,136,10664,2,0,B|224:104|272:104,1,80,2|0
297,175,10941,1,0
352,120,11080,6,0,B|392:104|400:56,1,80
480,64,11357,1,0
456,136,11495,2,0,B|416:240,1,80,2|0
360,248,11772,1,0
408,320,11891,5,0
272,240,12168,1,2
344,96,12445,1,2
483,183,12722,1,4
302,342,13137,1,0
160,304,13414,2,0,B|112:280,2,40,2|2|0
64,176,13830,5,2
200,88,14107,2,0,B|240:96|256:144,1,80,0|2
328,112,14384,2,0,B|352:152|336:208,1,80,2|0
424,184,14661,1,2
403,258,14799,2,0,B|347:241|332:280|310:323|244:305,1,160,0|2
248,232,15215,5,0
95,182,15492,2,0,B|91:89|175:30,1,160,2|2
304,80,16046,2,0,B|300:228|184:288,1,240,0|0
352,312,16738,1,2
416,264,16877,5,0
472,114,17154,2,0,B|434:79|374:113,1,80,2|2
256,168,17569,1,0
256,168,17708,2,0,B|176:224,1,80,2|2
209,287,17985,2,0,B|146:317|68:233|139:152,1,160
46,162,18400,2,0,B|69:119|114:117,1,80,2|0
256,48,18816,5,0
307,116,18954,2,0,B|360:96|383:114|408:136|462:109,1,160,2|0
478,147,19300,2,0,B|494:195,5,40,2|0|2|0|2|0
416,216,19785,2,0,B|392:152,2,40,2|2|2
336,216,20062,1,0
376,304,20201,5,2
136,304,20616,1,2
136,80,21032,1,2
376,80,21447,1,2
136,192,21863,5,2
256,80,22278,1,2
376,192,22694,1,2
256,304,23109,1,6
464,192,23525,6,0,B|464:136|400:112,1,80
432,48,23802,1,2
352,64,23940,2,0,B|264:56,1,80,2|2
224,120,24217,1,2
152,80,24356,5,0
80,112,24494,2,0,B|32:144|56:200,1,80
128,200,24771,1,0
80,264,24910,1,0
160,288,25048,1,2
208,224,25187,6,0,B|240:200|288:224|328:248|368:216,1,160,0|2
443,180,25602,2,0,B|416:136|366:132,1,80,0|0
304,104,25879,1,2
148,140,26018,6,0,B|192:160|236:116,1,80,2|0
176,56,26295,1,2
96,56,26433,2,0,B|24:104,1,80,0|2
48,176,26710,1,2
80,248,26849,6,0,B|67:303|128:320|152:272|152:272|176:224|234:247|221:302,1,240,0|0
296,272,27403,2,0,B|344:275|360:320,1,80,2|0
408,256,27680,6,0,B|432:152,1,80
360,128,27957,1,0
304,64,28096,2,0,B|264:152,1,80
240,208,28373,2,0,B|256:240|296:248,2,40,2|2|0
176,152,28650,5,0
104,184,28788,2,0,B|72:216|88:272,1,80,2|2
176,240,29065,2,0,B|208:288|168:352,2,80,0|0|2
256,256,29481,5,2
328,216,29619,1,0
312,136,29758,2,0,B|363:117|388:143|411:166|472:128,1,160,0|2
416,72,30173,6,0,B|378:43|314:45,1,80
264,24,30450,1,0
192,56,30589,2,0,B|128:136,1,80,2|0
208,160,30866,1,0
160,224,31004,6,0,B|192:256|240:240,2,80,0|2|0
240,368,31420,2,0,B|216:328|176:319,1,80,2|0
288,300,31697,1,0
365,272,31835,6,0,B|389:232|373:184,1,80,2|0
432,136,32112,1,0
384,72,32251,2,0,B|488:24,2,80,0|2|0
228,87,32666,6,0,B|252:55|308:63,1,80
288,144,32943,1,2
240,208,33082,1,0
180,150,33220,2,0,B|143:178|159:226,1,80
296,264,33497,6,0,B|320:248|336:264|352:280|416:240,1,80,2|0
432,184,33774,2,0,B|408:168|392:184|376:200|320:160,1,80,2|2
368,104,34051,1,2
304,48,34190,5,0
225,72,34328,2,0,B|185:96|177:152,2,80,2|0|0
136,40,34744,2,0,B|76:154,1,80,2|0
85,190,35021,1,2
157,231,35159,6,0,B|192:256|241:238,1,80
317,207,35436,1,0
384,260,35575,2,0,B|406:296|467:292,1,80
448,208,35852,1,0
440,128,35990,6,0,B|404:96|322:92,1,80
320,32,36267,1,0
240,56,36406,2,0,B|200:40|208:88|160:64,2,80,2|2|2
232,136,36821,6,0,B|184:144|152:208,1,80,0|0
88,192,37098,2,0,B|63:271|192:312|220:216,1,160,2|0
234,335,37514,2,0,B|250:295|306:279,1,80,2|2
252,213,37791,22,0,B|356:164,1,80,0|2
396,143,38068,2,0,B|436:119|482:158,1,80,0|2
429,223,38345,1,2
379,289,38483,6,0,B|337:221|228:265|299:401,1,160,0|2
351,364,38899,2,0,B|271:172,1,160,0|2
232,160,39314,1,0
160,128,39453,2,0,B|120:104|72:136,1,80
65,285,39730,2,0,B|40:248|54:192,1,80
135,335,40007,2,0,B|176:360|225:332,1,80,2|0
272,280,40284,5,0
336,232,40422,2,0,B|360:192|320:136,1,80,2|2
344,72,40699,2,0,B|264:96,1,80
200,56,40976,6,2,B|144:32|120:56|94:82|40:40,1,160
32,128,41392,2,0,B|16:168|24:232,1,80
48,280,41669,1,2
128,264,41807,6,0,B|152:296|216:288,1,80
285,267,42084,1,0
312,192,42223,2,0,B|264:176|216:216,1,80,2|0
264,104,42500,6,0,B|232:56,6,40,0|2|0|2|0|2|0
184,112,43054,2,2,B|208:152,2,40
136,176,43331,1,0
144,256,43470,6,0,B|192:280|216:256|240:232|304:264,1,160,2|0
368,288,43885,2,0,B|376:232|344:192,1,80,0|2
339,128,44162,1,0
418,160,44301,6,0,B|474:96,1,80
395,66,44578,1,0
304,56,44716,1,0
258,134,44855,2,0,B|222:164|226:214,1,80,0|0
152,264,45132,5,2
32,160,45270,2,0,B|39:204|104:224,1,80
104,112,45547,1,0
240,32,45686,2,0,B|192:32|168:72,1,80,2|0
224,128,45963,6,2,B|262:160|240:240,1,80
320,168,46240,2,2,B|353:211|320:280,1,80
366,315,46517,2,0,B|438:283,1,80,0|2
480,216,46794,6,0,B|480:160|412:120,1,80
392,88,47071,1,2
325,131,47209,2,0,B|305:181|248:177,1,80,2|2
208,120,47486,1,2
136,152,47625,5,0
88,216,47763,2,0,B|64:256|96:304,1,80
176,304,48040,2,0,B|200:264|240:272|288:288|312:224,1,160,0|2
384,216,48456,6,0,B|410:184|400:128,1,80
456,88,48733,1,2
392,40,48871,1,0
320,72,49010,2,0,B|279:95|285:158,1,80,0|2
208,136,49287,5,2
152,80,49425,2,0,B|104:64|64:112,1,80,0|2
64,184,49702,1,0
112,248,49841,2,2,B|80:288|112:336,1,80
184,336,50118,5,0
256,304,50256,2,0,B|301:288|336:336,1,80,0|2
376,264,50533,1,0
456,240,50672,2,0,B|452:185|367:172,1,80,2|0
368,104,50949,5,0
304,56,51087,2,0,B|256:72|256:136,1,80
184,152,51364,2,0,B|208:240,1,80
124,232,51641,2,0,B|108:184,2,40,2|2|4
256,192,51918,12,2,53442
