osu file format v9

[General]
AudioFilename: Nao sei o nome.mp3
AudioLeadIn: 2000
PreviewTime: 23488
Countdown: 0
SampleSet: Soft
StackLeniency: 0.7
Mode: 1
LetterboxInBreaks: 1

[Editor]
Bookmarks: 11854,23488,36780,46757
DistanceSpacing: 1
BeatDivisor: 3
GridSize: 32

[Metadata]
Title:Digimon Care Theme
Artist:Hiroshi Izawa
Creator:Hyguys
Version:Mega Taiko
Source:Digimon World Championship
Tags:Terriemon Guilmon Calumon Takato Matsuki Henry Wong

[Difficulty]
HPDrainRate:6
CircleSize:5
OverallDifficulty:5
ApproachRate:5
SliderMultiplier:1.6
SliderTickRate:1

[Events]
//Background and Video events
0,0,"TaikoBG.jpg"
//Break Periods
//Storyboard Layer 0 (Background)
//Storyboard Layer 1 (Fail)
//Storyboard Layer 2 (Pass)
//Storyboard Layer 3 (Foreground)
//Storyboard Sound Samples
//Background Colour Transformations
3,100,163,162,255

[TimingPoints]
277,415.513202646071,4,2,1,60,1,0
11854,-100,4,2,1,70,0,0
11891,415.513202646071,4,2,1,60,1,0
23525,-100,4,2,1,80,0,1
36821,-100,4,2,1,80,0,0
51919,-100,4,2,1,60,0,0
52473,-100,4,2,1,40,0,0
53165,-100,4,2,1,20,0,0
53442,-100,4,2,1,5,0,0

[Colours]
Combo1 : 255,36,36
Combo2 : 152,255,102
Combo3 : 5,5,240
Combo4 : 128,0,255
Combo5 : 255,255,151

[HitObjects]
480,192,277,1,0
480,192,554,1,0
480,192,692,1,8
480,192,969,1,0
480,192,1108,1,0
480,192,1385,1,0
480,192,1523,1,8
480,192,1800,1,8
480,192,1939,1,0
480,192,2216,1,0
480,192,2354,1,8
480,192,2631,1,0
480,192,2770,1,0
480,192,2908,1,0
480,192,3047,1,0
480,192,3185,1,8
480,192,3601,1,4
480,192,4016,1,8
480,192,4293,1,0
480,192,4432,1,0
480,192,4570,1,0
480,192,4709,1,0
480,192,4847,1,8
480,192,5124,1,8
480,192,5263,1,0
480,192,5540,1,0
480,192,5678,1,8
480,192,5955,1,0
480,192,6094,1,0
480,192,6371,1,0
480,192,6509,1,8
480,192,6925,1,4
480,192,7202,1,0
480,192,7340,1,8
480,192,7479,1,0
480,192,7617,1,0
480,192,7756,1,0
480,192,8171,1,8
480,192,8587,1,0
480,192,8725,1,0
480,192,8864,1,0
480,192,9002,1,8
480,192,9279,1,0
480,192,9418,1,0
480,192,9695,1,0
480,192,9833,1,8
480,192,10249,1,0
480,192,10387,1,0
480,192,10526,1,0
480,192,10664,1,8
480,192,10941,1,0
480,192,11080,1,0
480,192,11218,1,8
480,192,11357,1,8
480,192,11495,1,8
480,192,11891,1,4
480,192,12168,1,12
480,192,12445,1,12
480,192,12722,1,4
480,192,13137,1,0
480,192,13414,1,8
480,192,13484,1,8
480,192,13553,1,0
480,192,13830,1,8
480,192,14107,1,0
480,192,14245,1,8
480,192,14384,1,8
480,192,14522,1,0
480,192,14661,1,8
480,192,14799,1,0
480,192,15076,1,8
480,192,15215,1,0
480,192,15492,1,8
480,192,15769,1,8
480,192,16046,1,0
480,192,16461,1,0
480,192,16738,1,8
480,192,16877,1,0
480,192,17154,1,8
480,192,17292,1,8
480,192,17569,1,0
480,192,17708,1,8
480,192,17846,1,8
480,192,17985,1,0
480,192,18262,1,0
480,192,18400,1,8
480,192,18539,1,0
480,192,18816,1,0
480,192,18954,1,8
480,192,19231,1,0
480,192,19301,1,8
480,192,19370,1,0
480,192,19439,1,8
480,192,19508,1,0
480,192,19578,1,8
480,192,19647,1,0
480,192,19786,1,8
480,192,19855,1,8
480,192,19924,1,8
480,192,20201,1,8
480,192,20478,1,0
480,192,20755,1,8
480,192,20893,1,0
480,192,21032,1,0
480,192,21724,1,0
480,192,21863,1,8
480,192,22140,1,0
480,192,22417,1,8
480,192,22694,1,8
480,192,22971,1,0
480,192,23109,1,8
480,192,23386,1,8
480,192,23525,1,0
480,192,23663,1,0
480,192,23802,1,8
480,192,23940,1,8
480,192,24079,1,8
480,192,24217,1,8
480,192,24356,1,0
480,192,24771,1,0
480,192,25048,1,8
480,192,25187,1,0
480,192,25464,1,8
480,192,25602,1,0
480,192,25741,1,0
480,192,25879,1,8
480,192,26018,1,8
480,192,26295,1,8
480,192,26433,1,0
480,192,26572,1,8
480,192,26710,1,8
480,192,26849,1,0
480,192,27126,1,8
480,192,27403,1,8
480,192,27680,1,0
480,192,27957,1,0
480,192,28096,1,0
480,192,28234,1,0
480,192,28373,1,8
480,192,28511,1,0
480,192,28788,1,8
480,192,28927,1,8
480,192,29204,1,0
480,192,29342,1,8
480,192,29481,1,8
480,192,29619,1,0
480,192,29896,1,0
480,192,30035,1,8
480,192,30173,1,0
480,192,30450,1,0
480,192,30589,1,8
480,192,30866,1,0
480,192,31004,1,0
480,192,31143,1,8
480,192,31281,1,0
480,192,31420,1,8
480,192,31697,1,0
480,192,31835,1,8
480,192,32112,1,0
480,192,32389,1,8
480,192,32666,1,0
480,192,32943,1,8
480,192,33359,1,0
480,192,33497,1,8
480,192,33636,1,0
480,192,33774,1,0
480,192,33913,1,0
480,192,34051,1,8
480,192,34190,1,0
480,192,34328,1,8
480,192,34605,1,0
480,192,34744,1,8
480,192,35021,1,8
480,192,35159,1,0
480,192,35298,1,0
480,192,35436,1,0
480,192,35575,1,8
480,192,35713,1,0
480,192,35852,1,8
480,192,35990,1,0
480,192,36129,1,0
480,192,36267,1,0
480,192,36406,1,8
480,192,36544,1,0
480,192,36683,1,8
480,192,36821,1,0
480,192,37098,1,8
480,192,37375,1,0
480,192,37514,1,8
480,192,37652,1,8
480,192,37791,1,0
480,192,37929,1,8
480,192,38068,1,0
480,192,38206,1,8
480,192,38345,1,8
480,192,38483,1,0
480,192,38760,1,8
480,192,38899,1,0
480,192,39037,1,8
480,192,39314,1,0
480,192,39591,1,0
480,192,39730,1,0
480,192,39868,1,0
480,192,40007,1,8
480,192,40145,1,0
480,192,40422,1,8
480,192,40561,1,8
480,192,40838,1,0
480,192,40976,1,8
480,192,41115,1,8
480,192,41253,1,0
480,192,41530,1,0
480,192,41669,1,8
480,192,41807,1,0
480,192,42084,1,0
480,192,42223,1,8
480,192,42500,1,0
480,192,42570,1,8
480,192,42639,1,0
480,192,42708,1,8
480,192,42777,1,0
480,192,42847,1,8
480,192,42916,1,0
480,192,43054,1,8
480,192,43124,1,8
480,192,43193,1,8
480,192,43470,1,8
480,192,43747,1,0
480,192,44024,1,8
480,192,44301,1,0
480,192,44993,1,0
480,192,45132,1,8
480,192,45409,1,0
480,192,45686,1,8
480,192,45963,1,8
480,192,46240,1,0
480,192,46378,1,8
480,192,46655,1,8
480,192,46794,1,0
480,192,46932,1,0
480,192,47071,1,8
480,192,47209,1,8
480,192,47348,1,8
480,192,47486,1,8
480,192,47625,1,0
480,192,47763,1,0
480,192,47902,1,0
480,192,48040,1,8
480,192,48179,1,0
480,192,48317,1,8
480,192,48456,1,0
480,192,48733,1,0
480,192,48871,1,8
480,192,49148,1,0
480,192,49287,1,0
480,192,49564,1,0
480,192,49702,1,8
480,192,50118,1,0
480,192,50256,1,0
480,192,50395,1,0
480,192,50533,1,8
480,192,50672,1,0
480,192,50810,1,0
480,192,50949,1,0
480,192,51087,1,0
480,192,51226,1,0
480,192,51364,1,8
480,192,51503,1,0
480,192,51642,1,8
480,192,51711,1,8
480,192,51780,1,0
256,192,51918,12,0,53442
