osu file format v5

[General]
AudioFilename: 03_boss_01_-_butsutekkai.mp3
AudioLeadIn: 993
PreviewTime: -1
Countdown: 1
SampleSet: Normal
StackLeniency: 0.7
Mode: 0
EditorBookmarks: 10911,22703,29119,51489,78541,85998,96923

[Metadata]
Title:Theme of Butsutekkai
Artist:Hiroshi Iuchi
Creator:kingcobra52
Version:Easy
Source:
Tags:

[Difficulty]
HPDrainRate:3
CircleSize:3
OverallDifficulty:4
SliderMultiplier:1.6
SliderTickRate:1

[Events]
//Background and Video events
0,0,"wallpaper.jpg"
1,-6260,"butsex.avi"
//Break Periods
2,68336,77915
//Storyboard Layer 0 (Background)
//Storyboard Layer 1 (Failing)
//Storyboard Layer 2 (Passing)
//Storyboard Layer 3 (Foreground)
//Storyboard Sound Samples
//Background Colour Transformations
3,100,163,162,255

[TimingPoints]
177,693.64161849711,4,1,0,100

[Colours]
Combo1 : 78,78,78
Combo2 : 214,214,214

[HitObjects]
104,72,176,1,4
232,72,870,1,4
360,72,1564,1,4
360,328,2951,5,4
232,328,3645,1,4
104,328,4338,1,4
104,72,5726,5,4
192,160,6419,1,4
288,72,7113,1,4
288,328,8500,5,4
192,240,9194,1,4
96,328,9887,1,4
96,72,11275,6,0,B|168:48|232:72|232:168|216:256|248:312|336:328|400:312|416:224,1,480
392,112,14049,1,0
264,72,14743,1,0
152,128,15437,1,0
104,240,16130,1,0
192,320,16824,6,0,B|328:224,1,160
424,144,18211,1,0
248,64,19252,6,2,B|168:64,2,40
56,176,20986,1,2
104,296,21679,6,4,B|200:328|248:232,1,160
336,160,23067,1,4
440,80,23760,1,4
432,336,25148,5,4
328,264,25841,1,4
224,192,26535,1,4
440,72,27922,5,4
440,200,28616,1,4
440,328,29309,6,0,B|384:328|328:312|287:276|296:176|296:96|204:30|136:28|72:64,1,480
80,176,32084,1,0
160,288,32778,1,0
296,320,33471,1,0
416,288,34165,1,0
456,168,34859,6,2,B|448:112|368:24|320:32|280:112|240:192|200:168|128:136|104:64|88:32,1,480
56,160,37633,2,2,B|40:264|136:312,1,160
240,296,39020,1,2
368,296,39714,1,2
472,224,40408,6,0,L|402:82|352:221|288:56,1,480
160,64,43182,2,2,L|32:184,1,160
40,304,44570,1,2
168,304,45263,1,2
256,192,45957,12,2,48731
112,88,49425,1,2
200,184,50119,1,2
288,88,50812,1,2
360,192,51506,6,4,L|360:352,2,160
168,192,53934,2,4,L|80:192,1,80
88,64,54974,1,4
216,64,55668,1,4
408,64,56708,6,4,L|408:152,1,80
408,272,57749,1,4
272,272,58442,1,4
80,272,59483,6,4,L|80:184,1,80
208,192,60523,1,4
304,280,61217,1,4
472,192,62257,6,4,L|472:104,1,80
344,112,63298,1,4
344,240,63992,1,4
152,240,65032,6,4,L|152:128,1,80
280,160,66072,1,4
280,288,66766,1,4
472,288,67807,2,4,L|392:288,1,80
80,56,79252,5,4
80,176,79945,1,4
80,304,80639,1,4
336,304,82026,5,4
336,176,82720,1,4
336,48,83413,1,4
88,48,84801,5,4
88,176,85494,1,4
152,176,85841,1,4
208,176,86188,6,0,L|376:176,1,160
368,304,87575,2,0,L|200:304,1,160
72,304,88963,1,0
72,176,89656,1,0
200,176,90350,1,0
328,176,91044,1,0
464,168,91737,6,2,B|472:224|448:296|385:304|327:296|311:195|246:111|179:88|120:184,1,480
128,304,94512,2,2,B|296:304,1,160
288,176,95899,2,2,B|120:176,1,160
128,40,97286,5,0
256,40,97980,2,0,B|376:48|429:126|368:213|248:200,1,320
128,192,100061,1,0
128,320,100755,2,2,B|223:328|300:312|370:268|400:176,1,320
424,136,102489,1,0
456,80,102835,5,0
200,72,104223,2,2,L|65:151|192:256,1,320
256,192,105957,12,4,108385
