osu file format v12

[General]
AudioFilename: Ikaruga - Chapter 1 and Boss 1.mp3
AudioLeadIn: 0
PreviewTime: 28828
Countdown: 0
SampleSet: Normal
StackLeniency: 0.7
Mode: 0
LetterboxInBreaks: 0
WidescreenStoryboard: 0

[Editor]
Bookmarks: 28725,34821,47305,71596,84370,96854,109531,138563,150390,160968,167904,179002
DistanceSpacing: 0.8
BeatDivisor: 3
GridSize: 4
TimelineZoom: 1.3

[Metadata]
Title:Chapter 1 (Ideal)
TitleUnicode:Chapter 1 (Ideal)
Artist:Hiroshi Iuchi
ArtistUnicode:Hiroshi Iuchi
Creator:kingcobra52
Version:Normal
Source:Ikaruga
Tags:bullet hell shooting shooter shoot-em-up shmup
BeatmapID:32143
BeatmapSetID:7484

[Difficulty]
HPDrainRate:4
CircleSize:4
OverallDifficulty:5
ApproachRate:5
SliderMultiplier:1.6
SliderTickRate:2

[Events]
//Background and Video events
Video,-153,"ikaruga.avi"
0,0,"20090116180555_ikaruga_01.jpg",0,0
//Break Periods
2,59979,70579
2,128108,137741
//Storyboard Layer 0 (Background)
//Storyboard Layer 1 (Fail)
//Storyboard Layer 2 (Pass)
//Storyboard Layer 3 (Foreground)
//Storyboard Sound Samples
//Background Colour Transformations
3,100,0,0,0

[TimingPoints]
28812,387.096774193548,4,1,0,80,1,0
138931,346.820809248555,4,1,0,80,1,1
150029,-100,4,2,0,80,0,0
160371,-100,4,1,0,80,0,0
161127,-100,4,1,0,80,0,1
168063,-100,4,1,0,80,0,0

[Colours]
Combo1 : 113,48,36
Combo2 : 175,177,207

[HitObjects]
64,88,28812,5,4,0:0:0:0:
256,88,29392,1,4,0:0:0:0:
448,88,29973,1,4,0:0:0:0:
256,192,30166,12,4,31521,0:0:0:0:
448,312,31908,5,4,0:0:0:0:
256,312,32489,1,4,0:0:0:0:
64,312,33070,1,4,0:0:0:0:
256,192,33263,12,0,34618,0:0:0:0:
200,336,35005,6,0,B|360:352|472:248|464:64,1,426.666666666667
392,32,36295,1,0,0:0:0:0:
344,104,36553,2,0,B|264:-64|88:-64|48:128,1,426.666666666667
8,200,37844,1,0,0:0:0:0:
72,256,38102,2,2,B|144:384|288:336,1,240
274,340,38876,1,2,0:0:0:0:
424,320,39263,2,0,B|424:152,3,160,0|2|0|2,0:0|0:0|0:0|0:0,0:0:0:0:
304,104,40811,5,0,0:0:0:0:
184,48,41199,2,0,P|48:192|184:328,1,426.666666666667
256,292,42489,1,0,0:0:0:0:
332,332,42747,2,0,P|468:188|332:52,1,426.666666666667
252,40,44037,1,0,0:0:0:0:
184,92,44295,2,2,B|248:204|400:164,1,240
392,165,45070,1,2,0:0:0:0:
336,280,45457,1,0,0:0:0:0:
208,280,45844,2,0,B|208:112,1,160,0|2,0:0|0:0,0:0:0:0:
80,120,46618,6,0,B|80:288,1,160,0|2,0:0|0:0,0:0:0:0:
208,280,47392,2,0,P|412:244|476:52,1,426.666666666667
400,16,48682,1,0,0:0:0:0:
316,36,48941,2,0,B|236:-16|112:32|272:220|64:308|24:168,1,426.666666666667
8,268,50231,1,0,0:0:0:0:
68,328,50489,2,2,B|316:264,1,240
300,268,51263,1,2,0:0:0:0:
404,192,51650,5,0,0:0:0:0:
320,96,52037,1,2,0:0:0:0:
236,192,52424,1,0,0:0:0:0:
152,96,52811,1,2,0:0:0:0:
68,192,53199,1,2,0:0:0:0:
68,320,53586,6,0,B|220:368|372:320|452:176,1,426.666666666667
496,260,54876,1,0,0:0:0:0:
440,324,55134,2,0,B|370:197|218:149|66:197,1,426.666666666667
68,196,56424,1,0,0:0:0:0:
256,192,56682,12,4,59779,0:0:0:0:
32,56,71779,5,0,0:0:0:0:
144,56,72166,2,0,B|472:56,1,320
464,184,73328,1,0,0:0:0:0:
456,312,73715,2,0,B|392:368|304:344|312:240|200:240|144:328,1,320
96,192,74876,1,0,0:0:0:0:
40,80,75263,2,2,B|216:80,1,160
264,80,75844,2,2,B|320:80,2,40
272,208,76424,1,0,0:0:0:0:
400,208,76811,1,2,0:0:0:0:
272,208,77199,1,0,0:0:0:0:
400,208,77586,1,2,0:0:0:0:
336,320,77973,5,0,0:0:0:0:
208,320,78360,2,0,B|48:344|-16:140|72:0,1,426.666666666667
152,24,79650,2,0,B|264:48,1,106.666666666667
448,96,80489,2,0,B|504:112,2,40
400,216,81070,1,0,0:0:0:0:
352,336,81457,2,4,B|96:336,1,240
112,336,82231,1,4,0:0:0:0:
256,192,82424,12,0,84166,0:0:0:0:
312,336,84553,6,0,B|152:352|40:248|48:64,1,426.666666666667
120,32,85844,1,0,0:0:0:0:
168,104,86102,2,0,B|248:-64|424:-64|464:128,1,426.666666666667
504,200,87392,1,0,0:0:0:0:
440,256,87650,2,2,B|368:384|224:336,1,240
237,340,88424,1,2,0:0:0:0:
88,320,88811,2,0,B|88:152,3,160,0|2|0|2,0:0|0:0|0:0|0:0,0:0:0:0:
208,104,90360,5,0,0:0:0:0:
324,52,90747,2,0,P|460:196|324:332,1,426.666666666667
256,288,92037,1,0,0:0:0:0:
180,328,92295,2,0,P|49:185|185:48,1,426.666666666667
268,36,93586,1,0,0:0:0:0:
332,92,93844,2,2,B|268:204|116:164,1,240
123,165,94618,1,2,0:0:0:0:
176,284,95005,1,0,0:0:0:0:
304,284,95392,2,0,B|304:116,1,160,0|2,0:0|0:0,0:0:0:0:
432,124,96166,6,0,B|432:292,1,160,0|2,0:0|0:0,0:0:0:0:
304,284,96941,2,0,B|32:316|32:36,1,426.666666666667
112,16,98231,1,0,0:0:0:0:
196,36,98489,2,0,B|276:-16|400:32|240:220|448:308|488:168,1,426.666666666667
508,264,99779,1,0,0:0:0:0:
452,328,100037,2,2,B|204:264,1,240
219,268,100811,1,2,0:0:0:0:
116,192,101199,5,0,0:0:0:0:
200,96,101586,1,2,0:0:0:0:
284,192,101973,1,0,0:0:0:0:
364,92,102360,1,2,0:0:0:0:
444,192,102747,1,2,0:0:0:0:
444,320,103134,6,0,B|292:368|140:320|60:176,1,426.666666666667,4|0,0:0|0:0,0:0:0:0:
36,272,104424,1,0,0:0:0:0:
76,348,104682,2,0,B|145:221|297:173|449:221,1,426.666666666667,4|0,0:0|0:0,0:0:0:0:
447,220,105973,1,0,0:0:0:0:
256,192,106231,12,0,108553,0:0:0:0:
256,24,109328,5,4,0:0:0:0:
160,192,109908,1,4,0:0:0:0:
352,192,110489,1,4,0:0:0:0:
336,320,110876,2,0,B|152:320,3,160
176,192,112424,5,4,0:0:0:0:
256,16,113005,1,4,0:0:0:0:
336,192,113586,1,4,0:0:0:0:
256,296,113973,2,0,B|256:384,6,80
168,208,115521,5,4,0:0:0:0:
32,72,116102,1,4,0:0:0:0:
216,32,116682,1,4,0:0:0:0:
319,96,117070,2,0,B|407:65|479:121,1,160,0|0,0:0|0:0,0:0:0:0:
463,175,117650,2,0,B|399:125|311:156,1,160,0|0,0:0|0:0,0:0:0:0:
303,215,118231,6,0,B|391:184|463:240,1,160,0|4,0:0|0:0,0:0:0:0:
304,352,119199,1,4,0:0:0:0:
144,240,119779,1,4,0:0:0:0:
223,143,120166,2,0,B|372:203,1,160,0|0,0:0|0:0,0:0:0:0:
335,144,120747,2,0,B|484:204,1,160,0|0,0:0|0:0,0:0:0:0:
448,144,121328,6,0,B|299:85,1,160,0|4,0:0|0:0,0:0:0:0:
112,32,122295,1,4,0:0:0:0:
24,200,122876,1,4,0:0:0:0:
24,328,123263,2,0,B|192:328,1,160
184,328,123844,1,0,0:0:0:0:
184,200,124231,1,0,0:0:0:0:
184,200,124424,6,0,B|352:200,1,160,0|4,0:0|0:0,0:0:0:0:
472,56,125199,1,0,0:0:0:0:
472,56,125392,1,4,0:0:0:0:
472,184,125779,1,0,0:0:0:0:
472,184,125973,1,4,0:0:0:0:
472,312,126360,2,0,B|288:336|240:136,1,320,0|2,0:0|0:0,0:0:0:0:
288,24,127521,1,2,0:0:0:0:
160,48,127908,1,2,0:0:0:0:
56,32,138941,5,4,0:0:0:0:
152,120,139277,1,0,0:0:0:0:
256,192,139624,1,4,0:0:0:0:
360,120,139971,1,0,0:0:0:0:
464,40,140318,1,4,0:0:0:0:
256,280,141185,2,4,B|256:120,1,160
256,56,141705,5,4,0:0:0:0:
192,168,142052,1,0,0:0:0:0:
128,280,142399,1,4,0:0:0:0:
256,280,142746,1,0,0:0:0:0:
384,280,143092,1,4,0:0:0:0:
136,72,143959,2,4,B|232:80|256:168,1,160
256,224,144480,5,4,0:0:0:0:
384,224,144826,1,0,0:0:0:0:
320,112,145173,1,4,0:0:0:0:
192,112,145520,1,0,0:0:0:0:
128,224,145867,1,4,0:0:0:0:
376,72,146734,2,4,B|280:80|256:168,1,160
256,224,147254,5,4,0:0:0:0:
384,224,147601,1,0,0:0:0:0:
320,112,147948,1,4,0:0:0:0:
192,112,148295,1,0,0:0:0:0:
128,224,148641,1,4,0:0:0:0:
384,32,149509,2,4,B|216:32,1,160
160,32,150029,1,4,0:0:0:0:
64,264,150722,5,0,0:0:0:0:
176,328,151069,1,0,0:0:0:0:
303,344,151416,2,0,B|400:376|448:304,2,160
272,216,152457,2,0,B|177:248|130:178,1,160
64,64,153150,1,0,0:0:0:0:
192,32,153497,2,0,B|288:0|360:80,1,160
240,144,154191,2,0,B|336:112|408:192,1,160,0|2,0:0|0:0,0:0:0:0:
288,256,154884,2,0,B|384:224|456:304,1,160,2|2,0:0|0:0,0:0:0:0:
336,368,155578,6,0,B|153:369,2,160
248,280,156618,1,0,0:0:0:0:
128,240,156965,1,0,0:0:0:0:
48,144,157312,1,0,0:0:0:0:
40,16,157659,1,0,0:0:0:0:
168,16,158006,6,2,B|264:16,2,80
168,144,158699,2,0,B|168:312,1,160
296,304,159393,2,2,B|392:304,2,80,2|2|2,0:0|0:0|0:0,0:0:0:0:
376,208,160087,2,0,B|232:104,1,160,0|4,0:0|0:0,0:0:0:0:
144,40,160780,1,4,0:0:0:0:
32,104,161127,5,4,0:0:0:0:
32,232,161474,1,0,0:0:0:0:
32,360,161821,1,4,0:0:0:0:
32,232,162167,1,0,0:0:0:0:
32,104,162514,1,4,0:0:0:0:
224,104,163035,1,0,0:0:0:0:
223,167,163208,2,0,B|328:200|360:88,1,160
480,104,163902,5,4,0:0:0:0:
480,232,164248,1,0,0:0:0:0:
480,360,164595,1,4,0:0:0:0:
480,232,164942,1,0,0:0:0:0:
480,104,165289,1,4,0:0:0:0:
224,280,165809,1,0,0:0:0:0:
223,216,165983,2,0,B|328:184|360:296,1,160
352,144,166676,5,4,0:0:0:0:
96,144,167370,1,4,0:0:0:0:
224,144,167717,1,4,0:0:0:0:
352,144,168063,6,0,B|320:280|168:272,1,240
32,144,169104,1,0,0:0:0:0:
151,95,169451,2,0,B|279:133|360:0,1,240
472,160,170491,1,0,0:0:0:0:
431,279,170838,2,0,B|320:336|192:264,1,240
201,269,171532,5,0,0:0:0:0:
64,128,172052,1,0,0:0:0:0:
64,128,172225,1,0,0:0:0:0:
256,128,172746,1,0,0:0:0:0:
256,128,172919,1,0,0:0:0:0:
256,256,173266,1,0,0:0:0:0:
384,264,173613,6,0,B|464:192|424:32|288:24,1,320,0|2,0:0|0:0,0:0:0:0:
168,56,174653,1,0,0:0:0:0:
112,80,174826,1,0,0:0:0:0:
72,128,175000,2,0,B|88:200|184:200|216:96|288:96|360:152,1,320,0|2,0:0|0:0,0:0:0:0:
440,240,176040,1,0,0:0:0:0:
328,312,176387,2,2,B|248:352|160:296,3,160
72,224,177774,2,2,B|72:40,1,160
200,64,178468,2,2,B|200:232,1,160
328,224,179162,5,0,0:0:0:0:
144,288,179682,2,0,B|256:384|368:288,3,240
256,224,181589,1,0,0:0:0:0:
256,160,181763,1,0,0:0:0:0:
256,96,181936,2,2,B|120:48|48:176,1,240
24,224,182630,1,2,0:0:0:0:
136,288,182977,5,0,0:0:0:0:
256,328,183324,1,2,0:0:0:0:
376,280,183670,1,0,0:0:0:0:
256,224,184017,1,2,0:0:0:0:
376,184,184364,1,2,0:0:0:0:
256,192,184711,12,4,186098,0:0:0:0:
256,192,186185,12,4,187485,0:0:0:0:
176,288,188179,6,0,B|352:288,4,160
256,188,189913,2,0,B|256:4,1,160,0|4,0:0|0:0,0:0:0:0:
