osu file format v12

[General]
AudioFilename: Hironobu Kageyama - Chou Hero Densetsu.mp3
AudioLeadIn: 0
PreviewTime: 10129
Countdown: 0
SampleSet: Normal
StackLeniency: 0.7
Mode: 0
LetterboxInBreaks: 1
StoryFireInFront: 0

[Editor]
Bookmarks: 11255,25560
DistanceSpacing: 1
BeatDivisor: 2
GridSize: 8

[Metadata]
Title:Chou Hero Densetsu
TitleUnicode:Chou Hero Densetsu
Artist:Hironobu Kageyama
ArtistUnicode:Hironobu Kageyama
Creator:jaye19
Version:Normal
Source:Bakuman
Tags:Manga OST Dreams Superhero FOLLOWYODREAMS
BeatmapID:259351
BeatmapSetID:96843

[Difficulty]
HPDrainRate:3
CircleSize:4
OverallDifficulty:6
ApproachRate:5
SliderMultiplier:1.2
SliderTickRate:2

[Events]
//Background and Video events
0,0,"Normal.jpg",0,0
Video,0,"Video (2).avi"
//Break Periods
2,37641,39222
//Storyboard Layer 0 (Background)
//Storyboard Layer 1 (Fail)
//Storyboard Layer 2 (Pass)
//Storyboard Layer 3 (Foreground)
//Storyboard Sound Samples
//Background Colour Transformations
3,100,255,255,174

[TimingPoints]
2277,397.350993377483,4,1,0,100,1,0
11416,-100,4,1,0,100,0,1
27310,-100,4,1,0,100,0,0
67045,-100,4,1,0,100,0,1
85521,-100,4,1,0,100,0,0

[Colours]
Combo1 : 128,255,0
Combo2 : 255,0,0
Combo3 : 255,128,255
Combo4 : 192,192,192

[HitObjects]
440,72,2276,2,0,P|440:144|424:184,2,60
319,72,3071,1,0,0:0:0:0:
234,156,3469,1,0,0:0:0:0:
149,71,3866,2,0,P|96:192|96:200,3,120
216,176,5455,2,4,B|296:376|296:376|296:368,2,200
272,119,7045,2,0,L|376:368,1,240,0|4,0:0|0:0,0:0:0:0:
256,192,8237,12,0,10621,0:0:0:0:
296,272,11018,1,0,0:0:0:0:
360,320,11416,2,4,P|464:216|464:208,1,120
360,224,12210,1,0,0:0:0:0:
280,256,12608,2,2,P|296:96|424:176,1,360
360,224,14197,1,0,0:0:0:0:
160,320,14594,2,0,P|56:216|56:208,1,120,8|0,0:0|0:0,0:0:0:0:
160,224,15388,1,0,0:0:0:0:
240,256,15786,2,2,P|224:96|96:176,1,360
160,224,17376,1,0,0:0:0:0:
244,308,17772,6,8,L|372:308,1,120
484,308,18568,1,4,0:0:0:0:
480,192,18965,2,0,L|344:192,1,120
240,192,19759,1,0,0:0:0:0:
115,192,20157,2,0,P|184:104|256:88,2,180
115,311,21746,2,0,L|248:312,2,120
256,192,22939,12,0,26515,0:0:0:0:
464,336,27707,5,0,0:0:0:0:
379,251,28104,1,0,0:0:0:0:
294,166,28502,1,0,0:0:0:0:
378,81,28899,2,4,B|618:185|426:369|234:177|506:73,1,480
376,32,30886,1,0,0:0:0:0:
256,32,31283,1,0,0:0:0:0:
171,116,31680,2,8,L|243:284,3,180
416,248,34065,5,2,0:0:0:0:
331,332,34462,1,2,0:0:0:0:
246,247,34859,1,2,0:0:0:0:
161,331,35257,1,8,0:0:0:0:
76,246,35654,2,2,P|79:211|191:139,2,180
195,246,37243,2,0,L|275:246,1,60
400,344,40422,5,8,0:0:0:0:
296,288,40818,1,8,0:0:0:0:
184,336,41217,1,4,0:0:0:0:
80,280,41614,1,4,0:0:0:0:
184,224,42012,2,0,B|264:192|224:120|368:152|376:64,2,240
80,168,43998,1,2,0:0:0:0:
144,64,44396,2,0,B|184:192|320:192|376:344,1,360
192,328,46184,6,2,P|96:248|88:200,1,180
208,216,47177,1,0,0:0:0:0:
327,216,47574,2,0,L|384:184,1,60
480,128,48169,2,0,P|472:80|376:0,1,180,0|0,0:0|0:0,0:0:0:0:
288,80,49164,2,4,B|224:80|192:56|184:48,1,60
256,192,49760,12,0,52541,0:0:0:0:
24,192,53137,6,2,P|48:312|160:352,1,240
144,232,54329,2,2,L|288:104,2,180
256,264,55918,1,0,0:0:0:0:
352,192,56316,2,2,L|448:112,2,120
264,112,57508,2,2,L|360:32,2,120
160,56,58700,1,8,0:0:0:0:
64,128,59098,1,8,0:0:0:0:
64,248,59495,6,0,P|176:336|224:328,2,180
183,248,61084,2,0,L|271:192,2,60
98,163,61878,1,0,0:0:0:0:
16,72,62276,2,0,P|187:58|251:114,1,240
232,152,63270,1,8,0:0:0:0:
288,168,63468,2,14,L|360:168,1,60
256,192,64065,12,0,66647,0:0:0:0:
360,64,67044,6,8,P|464:168|464:176,1,120
360,160,67839,1,0,0:0:0:0:
280,128,68237,2,2,P|296:288|422:220,1,360
360,160,69826,1,0,0:0:0:0:
160,64,70223,6,8,P|56:168|56:176,1,120
160,160,71017,1,0,0:0:0:0:
240,128,71415,2,2,P|224:288|97:220,1,360
160,160,73005,1,0,0:0:0:0:
244,75,73402,6,4,L|372:75,1,120
484,75,74197,1,0,0:0:0:0:
448,168,74594,2,0,B|400:64|72:336|40:224,2,420
464,288,77773,1,0,0:0:0:0:
432,344,77972,2,2,P|352:256|480:224,2,300
312,336,80356,2,0,L|232:336,1,60
209,293,80753,2,0,L|160:248,2,60
256,192,81548,12,0,84924,0:0:0:0:
256,160,85323,6,0,L|256:256,1,60,4|12,0:0|0:0,0:0:0:0:
