osu file format v12

[General]
AudioFilename: Hironobu Kageyama - Chou Hero Densetsu.mp3
AudioLeadIn: 0
PreviewTime: 10129
Countdown: 0
SampleSet: Normal
StackLeniency: 0.7
Mode: 0
LetterboxInBreaks: 1
StoryFireInFront: 0

[Editor]
DistanceSpacing: 1
BeatDivisor: 2
GridSize: 8

[Metadata]
Title:Chou Hero Densetsu
TitleUnicode:Chou Hero Densetsu
Artist:Hironobu Kageyama
ArtistUnicode:Hironobu Kageyama
Creator:jaye19
Version:Insane
Source:Bakuman
Tags:Manga OST Dreams Superhero FOLLOWYODREAMS
BeatmapID:259350
BeatmapSetID:96843

[Difficulty]
HPDrainRate:8
CircleSize:6
OverallDifficulty:8
ApproachRate:8
SliderMultiplier:1.7
SliderTickRate:2

[Events]
//Background and Video events
0,0,"Insane.jpg",0,0
Video,0,"Video (2).avi"
//Break Periods
2,38636,39672
//Storyboard Layer 0 (Background)
//Storyboard Layer 1 (Fail)
//Storyboard Layer 2 (Pass)
//Storyboard Layer 3 (Foreground)
//Storyboard Sound Samples
//Background Colour Transformations
3,100,255,255,174

[TimingPoints]
2277,397.350993377483,4,1,0,100,1,0
11416,-100,4,1,0,100,0,1
27310,-100,4,1,0,100,0,0
67045,-100,4,1,0,100,0,1
85521,-100,4,1,0,100,0,0

[Colours]
Combo1 : 128,255,0
Combo2 : 255,0,0
Combo3 : 255,128,255
Combo4 : 192,192,192

[HitObjects]
96,288,2276,6,8,L|176:328,1,85
256,304,2674,2,0,L|312:224,1,85
360,168,3071,2,0,L|432:224,1,85
416,304,3469,1,0,0:0:0:0:
344,264,3667,1,0,0:0:0:0:
272,304,3866,1,0,0:0:0:0:
200,256,4065,1,0,0:0:0:0:
128,304,4263,1,0,0:0:0:0:
64,248,4462,1,0,0:0:0:0:
112,176,4661,1,0,0:0:0:0:
56,112,4859,1,0,0:0:0:0:
112,48,5058,2,4,L|280:128,1,170
344,96,5654,5,0,0:0:0:0:
416,56,5853,1,0,0:0:0:0:
424,144,6051,2,0,L|484:204,3,85,0|0|0|0,0:0|0:0|0:0|0:0,0:0:0:0:
448,280,6846,1,0,0:0:0:0:
376,320,7045,1,0,0:0:0:0:
296,288,7243,2,4,B|144:168|120:152|120:152,1,170
96,208,7839,2,0,B|264:336|264:352|296:352,1,170
256,240,8435,5,0,0:0:0:0:
320,184,8634,1,0,0:0:0:0:
360,256,8833,1,0,0:0:0:0:
408,184,9031,2,0,P|256:40|240:56,1,255
296,104,9826,1,0,0:0:0:0:
240,168,10025,1,0,0:0:0:0:
256,192,10224,12,0,11018,0:0:0:0:
64,48,11416,6,2,L|64:152,1,85,0|0,0:0|0:0,0:0:0:0:
64,216,11813,2,0,L|152:216,2,85
149,216,12409,1,0,0:0:0:0:
63,216,12608,1,0,0:0:0:0:
63,130,12807,1,0,0:0:0:0:
144,128,13005,2,2,P|248:216|128:352,1,340
84,291,13999,1,8,0:0:0:0:
160,256,14197,1,8,0:0:0:0:
160,168,14396,1,8,0:0:0:0:
248,168,14595,2,0,L|376:168,2,85
333,168,15191,1,0,0:0:0:0:
273,108,15389,1,0,0:0:0:0:
212,168,15588,1,0,0:0:0:0:
272,228,15787,1,0,0:0:0:0:
212,287,15985,5,0,0:0:0:0:
264,352,16184,2,2,B|416:256|432:56|528:48|552:24,1,425
456,24,17376,1,0,0:0:0:0:
395,84,17575,1,0,0:0:0:0:
335,143,17773,2,0,L|256:216,2,85
274,82,18369,1,8,0:0:0:0:
213,21,18568,1,8,0:0:0:0:
152,81,18767,1,8,0:0:0:0:
91,141,18966,1,0,0:0:0:0:
32,200,19164,2,0,P|152:184|168:128,1,170
166,152,19760,1,0,0:0:0:0:
232,208,19959,1,0,0:0:0:0:
292,268,20158,1,0,0:0:0:0:
360,320,20356,2,0,P|374:351|494:367,1,170
256,192,20952,12,0,22343,0:0:0:0:
216,192,22542,5,4,0:0:0:0:
300,192,22740,1,8,0:0:0:0:
256,192,22939,12,0,27310,0:0:0:0:
56,48,27707,6,2,P|56:160|72:168,2,85
116,108,28303,1,8,0:0:0:0:
176,47,28502,1,8,0:0:0:0:
116,108,28701,1,0,0:0:0:0:
176,47,28899,1,0,0:0:0:0:
236,107,29098,1,0,0:0:0:0:
175,46,29297,1,0,0:0:0:0:
236,107,29495,1,0,0:0:0:0:
175,167,29694,2,0,P|256:192|280:184,2,85
112,224,30290,1,0,0:0:0:0:
174,287,30489,1,0,0:0:0:0:
233,346,30687,1,0,0:0:0:0:
293,285,30886,6,4,P|344:224|288:168,2,170
353,345,31879,1,0,0:0:0:0:
353,345,32078,2,6,P|416:280|416:192,3,170
248,192,33668,1,0,0:0:0:0:
80,152,34065,2,0,B|48:208|96:256|112:280,2,85
16,96,34661,2,0,P|152:128|160:168,1,170
155,221,35257,1,0,0:0:0:0:
155,306,35456,1,0,0:0:0:0:
155,221,35654,1,0,0:0:0:0:
155,306,35853,1,0,0:0:0:0:
240,306,36052,2,0,P|248:136|208:72,1,170
164,141,36648,5,0,0:0:0:0:
223,81,36846,1,0,0:0:0:0:
283,141,37045,1,0,0:0:0:0:
343,80,37244,2,0,P|344:192|256:192,1,85
428,95,37641,1,0,0:0:0:0:
488,155,37840,1,0,0:0:0:0:
428,214,38038,1,0,0:0:0:0:
367,153,38237,1,0,0:0:0:0:
306,213,38436,1,0,0:0:0:0:
256,72,40422,6,8,L|208:144,1,85
294,142,40820,1,0,0:0:0:0:
378,142,41018,2,8,L|328:224,2,85
463,142,41615,1,0,0:0:0:0:
463,226,41813,2,8,L|408:320,2,85
463,142,42409,1,0,0:0:0:0:
377,142,42608,1,0,0:0:0:0:
377,226,42807,1,0,0:0:0:0:
317,285,43005,2,2,P|229:285|208:208,1,170
290,217,43601,1,0,0:0:0:0:
229,156,43800,1,0,0:0:0:0:
144,144,43999,2,2,P|56:144|32:211,1,170,0|0,0:0|0:0,0:0:0:0:
117,211,44595,1,0,0:0:0:0:
176,270,44793,1,0,0:0:0:0:
256,192,44992,12,0,45787,0:0:0:0:
80,24,46184,6,2,P|80:120|96:128,2,85
140,84,46780,1,0,0:0:0:0:
200,23,46979,1,0,0:0:0:0:
259,82,47177,1,0,0:0:0:0:
319,21,47376,1,0,0:0:0:0:
379,81,47575,2,4,P|304:168|296:168,1,85
284,214,47972,1,0,0:0:0:0:
344,274,48171,1,0,0:0:0:0:
403,214,48369,2,8,P|448:128|432:112,3,85
376,152,49164,2,14,P|341:257|389:265,1,170
256,192,49760,12,0,52740,0:0:0:0:
40,240,53138,6,4,P|96:312|112:312,3,85
120,232,53932,1,0,0:0:0:0:
160,304,54131,1,0,0:0:0:0:
208,232,54330,1,0,0:0:0:0:
248,304,54528,1,0,0:0:0:0:
296,232,54727,2,4,L|400:384,1,170
440,208,55522,2,8,L|344:208,1,85,0|0,0:0|0:0,0:0:0:0:
296,144,55919,2,8,L|400:144,1,85
464,144,56317,5,0,0:0:0:0:
416,72,56515,1,0,0:0:0:0:
368,136,56714,1,0,0:0:0:0:
320,64,56913,2,0,P|240:24|200:40,1,85
240,104,57310,1,0,0:0:0:0:
176,48,57509,1,0,0:0:0:0:
104,96,57707,1,0,0:0:0:0:
16,80,57906,2,4,P|80:192|136:192,3,170
256,288,59495,6,0,P|328:248|376:280,2,85
336,320,60091,2,0,P|400:256|384:232,3,85
328,240,60886,1,0,0:0:0:0:
248,256,61085,2,2,P|320:176|344:192,2,85
328,240,61681,2,0,P|344:144|248:96,2,170
272,176,62674,2,0,P|216:72|272:16,1,170
296,96,63270,1,0,0:0:0:0:
376,120,63469,2,12,P|304:240|224:240,1,170
256,192,64065,12,0,66648,0:0:0:0:
64,336,67045,6,0,L|64:232,1,85
64,168,67442,2,0,L|152:168,2,85
149,168,68038,1,0,0:0:0:0:
63,168,68237,1,0,0:0:0:0:
63,253,68436,1,0,0:0:0:0:
144,256,68634,2,2,P|248:168|128:32,1,340
80,72,69628,1,0,0:0:0:0:
139,131,69826,1,0,0:0:0:0:
139,216,70025,1,0,0:0:0:0:
224,216,70224,6,0,L|352:216,2,85
309,216,70820,1,0,0:0:0:0:
224,216,71018,1,0,0:0:0:0:
163,155,71217,1,0,0:0:0:0:
163,69,71416,1,0,0:0:0:0:
240,112,71614,1,0,0:0:0:0:
264,32,71813,2,2,B|416:128|432:328|528:336|552:360,1,425
456,360,73005,5,0,0:0:0:0:
395,300,73204,1,0,0:0:0:0:
335,241,73402,2,0,L|256:168,2,85
274,302,73998,1,0,0:0:0:0:
213,363,74197,1,0,0:0:0:0:
152,303,74396,1,0,0:0:0:0:
91,243,74595,1,0,0:0:0:0:
32,184,74793,2,12,P|152:200|168:256,1,170
166,232,75389,1,0,0:0:0:0:
232,176,75588,1,0,0:0:0:0:
292,116,75787,1,0,0:0:0:0:
360,64,75985,2,12,P|374:33|494:17,1,170
256,192,76581,12,0,77773,0:0:0:0:
216,192,77972,6,14,P|304:200|328:232,2,85
256,192,78568,12,0,81151,0:0:0:0:
256,192,81747,12,0,85323,0:0:0:0:
256,192,85522,5,12,0:0:0:0:
