osu file format v12

[General]
AudioFilename: Hironobu Kageyama - Chou Hero Densetsu.mp3
AudioLeadIn: 0
PreviewTime: 10129
Countdown: 0
SampleSet: Normal
StackLeniency: 0.7
Mode: 0
LetterboxInBreaks: 1
StoryFireInFront: 0

[Editor]
DistanceSpacing: 1
BeatDivisor: 2
GridSize: 8

[Metadata]
Title:Chou Hero Densetsu
TitleUnicode:Chou Hero Densetsu
Artist:Hironobu Kageyama
ArtistUnicode:Hironobu Kageyama
Creator:jaye19
Version:Hard
Source:Bakuman
Tags:Manga OST Dreams Superhero FOLLOWYODREAMS
BeatmapID:259349
BeatmapSetID:96843

[Difficulty]
HPDrainRate:6
CircleSize:5
OverallDifficulty:6
ApproachRate:6
SliderMultiplier:1.5
SliderTickRate:2

[Events]
//Background and Video events
0,0,"Hard.jpg",0,0
Video,0,"Video (2).avi"
//Break Periods
2,37444,39372
//Storyboard Layer 0 (Background)
//Storyboard Layer 1 (Fail)
//Storyboard Layer 2 (Pass)
//Storyboard Layer 3 (Foreground)
//Storyboard Sound Samples
//Background Colour Transformations
3,100,255,255,174

[TimingPoints]
2277,397.350993377483,4,1,0,100,1,0
11416,-100,4,1,0,100,0,1
27310,-100,4,1,0,100,0,0
67045,-100,4,1,0,100,0,1
85521,-100,4,1,0,100,0,0

[Colours]
Combo1 : 128,255,0
Combo2 : 255,0,0
Combo3 : 255,128,255
Combo4 : 192,192,192

[HitObjects]
88,48,2276,2,4,P|72:128|96:144,1,75
136,96,2674,1,0,0:0:0:0:
136,96,2873,1,0,0:0:0:0:
136,96,3071,1,0,0:0:0:0:
192,48,3270,2,8,P|280:48|360:104,4,150,2|2|2|2|2,0:0|0:0|0:0|0:0|0:0,0:0:0:0:
232,112,5058,5,0,0:0:0:0:
304,136,5257,2,0,B|240:216|232:216|200:184,1,75
184,176,5654,1,0,0:0:0:0:
208,248,5853,2,0,P|288:296|336:296,2,75
136,240,6449,1,0,0:0:0:0:
168,312,6647,2,0,P|56:256|64:208,1,150
56,176,7243,1,0,0:0:0:0:
128,176,7442,2,0,P|112:96|16:128,2,150
200,184,8435,6,0,P|184:64|48:16,1,225
72,80,9230,2,0,P|152:160|152:184,1,75
128,192,9627,1,0,0:0:0:0:
72,240,9826,2,12,P|136:288|168:280,1,75
288,128,10621,2,0,L|160:16,1,150
96,64,11416,6,2,P|72:208|96:216,1,150
117,179,12012,1,0,0:0:0:0:
192,179,12211,1,0,0:0:0:0:
244,231,12409,1,0,0:0:0:0:
297,284,12608,1,0,0:0:0:0:
288,360,12807,2,2,P|368:296|360:240,1,150
297,284,13403,1,0,0:0:0:0:
244,231,13601,1,0,0:0:0:0:
190,177,13800,2,0,L|280:104,2,75
114,177,14396,5,0,0:0:0:0:
152,112,14595,2,2,P|288:32|296:40,1,150
235,86,15191,1,0,0:0:0:0:
287,33,15389,1,0,0:0:0:0:
340,86,15588,1,0,0:0:0:0:
393,32,15787,1,0,0:0:0:0:
445,84,15985,1,0,0:0:0:0:
391,137,16184,2,2,P|336:176|280:120,3,150
334,182,17575,5,0,0:0:0:0:
408,182,17773,2,2,P|376:328|368:336,1,150
327,269,18369,1,0,0:0:0:0:
273,322,18568,1,0,0:0:0:0:
256,248,18767,1,0,0:0:0:0:
327,269,18966,1,0,0:0:0:0:
273,322,19164,1,0,0:0:0:0:
256,248,19363,6,2,P|152:272|96:352,2,150
272,320,20356,1,0,0:0:0:0:
352,320,20555,2,4,P|480:208|480:192,1,150
418,192,21151,2,14,P|124:192|88:216,1,300
183,241,22144,2,2,P|320:224|344:232,1,150
256,192,22740,12,0,27310,0:0:0:0:
400,320,27707,6,0,P|456:248|392:208,2,150
368,256,28701,1,0,0:0:0:0:
315,308,28899,1,0,0:0:0:0:
261,254,29098,1,12,0:0:0:0:
314,200,29297,2,0,L|229:135,3,75,0|0|0|0,0:0|0:0|0:0|0:0,0:0:0:0:
192,48,30224,2,0,L|344:48,1,150
456,40,30886,6,2,L|456:208,1,150
392,152,31482,1,0,0:0:0:0:
328,120,31681,2,2,L|224:0,4,150
328,195,33469,2,0,L|120:192,1,150
104,192,34065,6,0,L|104:376,3,150
179,342,35456,1,8,0:0:0:0:
179,267,35654,2,4,P|256:336|240:384,2,150
176,192,36648,2,2,P|312:256|336:320,1,225
40,48,40422,6,0,L|144:48,1,75
160,104,40820,2,0,L|72:104,1,75
136,160,41217,2,0,L|240:160,1,75
160,216,41615,2,0,L|160:304,1,75
216,240,42012,2,0,L|304:240,1,75
240,296,42409,2,0,L|336:296,4,75
296,240,43403,5,0,0:0:0:0:
348,187,43601,2,0,L|416:256,1,75
454,187,43999,2,0,L|392:120,1,75
453,81,44396,2,12,L|384:16,1,75
128,152,46184,6,0,P|136:240|168:272,1,75
192,192,46581,2,0,P|192:112|160:80,1,75
136,72,46979,1,8,0:0:0:0:
200,40,47177,1,8,0:0:0:0:
350,40,47575,2,0,L|352:192,1,150
351,265,48171,1,0,0:0:0:0:
351,339,48369,2,0,L|152:339,1,150
200,264,48966,2,0,L|200:184,2,75
256,192,49760,12,0,52740,0:0:0:0:
48,48,53138,6,12,P|72:152|104:176,1,150
40,216,53734,1,0,0:0:0:0:
112,240,53932,1,0,0:0:0:0:
168,192,54131,2,0,P|152:104|128:112,2,150
224,240,55124,1,0,0:0:0:0:
280,192,55323,1,0,0:0:0:0:
333,245,55522,2,4,L|400:304,1,75
464,294,55919,2,4,L|464:216,1,75
410,165,56317,6,0,P|304:112|296:96,1,75
285,94,56714,2,0,P|264:16|280:-8,1,75
335,26,57111,2,0,P|360:96|352:112,1,75
336,160,57509,2,0,P|264:184|224:160,2,75
384,96,58105,2,0,P|480:48|480:32,2,75
312,96,58701,2,4,L|208:96,1,75
160,96,59098,2,12,L|56:96,1,75
31,149,59495,5,0,0:0:0:0:
30,255,59892,1,0,0:0:0:0:
144,256,60290,2,0,L|309:257,1,150,0|0,0:0|0:0,0:0:0:0:
368,256,61084,2,0,L|456:360,2,100
439,184,61879,1,0,0:0:0:0:
385,130,62078,1,0,0:0:0:0:
331,183,62277,1,0,0:0:0:0:
256,183,62475,2,12,L|31:181,1,225
31,256,63270,1,0,0:0:0:0:
84,309,63469,2,2,L|159:309,1,75
256,192,64065,12,0,66648,0:0:0:0:
416,320,67045,6,0,P|440:176|416:168,1,150,8|0,0:0|0:0,0:0:0:0:
395,205,67641,1,0,0:0:0:0:
320,205,67840,1,0,0:0:0:0:
268,153,68038,1,0,0:0:0:0:
215,100,68237,1,0,0:0:0:0:
224,24,68436,2,4,P|144:88|152:144,1,150
215,100,69032,1,0,0:0:0:0:
268,153,69230,1,0,0:0:0:0:
322,207,69429,2,0,L|232:280,2,75
398,207,70025,5,0,0:0:0:0:
360,272,70224,2,8,P|224:352|216:344,1,150
277,298,70820,1,0,0:0:0:0:
225,351,71018,1,0,0:0:0:0:
172,298,71217,1,0,0:0:0:0:
119,352,71416,1,0,0:0:0:0:
67,300,71614,1,0,0:0:0:0:
121,247,71813,2,4,P|176:208|232:264,3,150
178,202,73204,5,0,0:0:0:0:
104,202,73402,2,0,P|136:56|144:48,1,150
185,115,73998,1,0,0:0:0:0:
239,62,74197,1,0,0:0:0:0:
256,136,74396,1,0,0:0:0:0:
185,115,74595,1,0,0:0:0:0:
239,62,74793,1,0,0:0:0:0:
256,136,74992,6,2,P|360:112|416:32,2,150
240,64,75985,1,0,0:0:0:0:
160,64,76184,2,0,P|32:176|32:192,1,150
94,192,76780,2,14,P|388:192|424:168,1,300
329,143,77773,2,2,P|192:160|168:152,1,150
256,192,78568,12,0,80952,0:0:0:0:
224,192,81151,6,14,L|320:192,1,75
256,192,81548,12,0,85323,0:0:0:0:
256,192,85521,5,0,0:0:0:0:
