osu file format v12

[General]
AudioFilename: Hironobu Kageyama - Chou Hero Densetsu.mp3
AudioLeadIn: 0
PreviewTime: 10129
Countdown: 0
SampleSet: Normal
StackLeniency: 0.7
Mode: 0
LetterboxInBreaks: 1
StoryFireInFront: 0

[Editor]
Bookmarks: 11255,25560
DistanceSpacing: 1
BeatDivisor: 2
GridSize: 8

[Metadata]
Title:Chou Hero Densetsu
TitleUnicode:Chou Hero Densetsu
Artist:Hironobu Kageyama
ArtistUnicode:Hironobu Kageyama
Creator:jaye19
Version:Easy
Source:Bakuman
Tags:Manga OST Dreams Superhero FOLLOWYODREAMS
BeatmapID:259348
BeatmapSetID:96843

[Difficulty]
HPDrainRate:0
CircleSize:3
OverallDifficulty:0
ApproachRate:2
SliderMultiplier:0.9
SliderTickRate:2

[Events]
//Background and Video events
0,0,"Easy.jpg",0,0
Video,0,"Video (2).avi"
//Break Periods
2,2476,3895
//Storyboard Layer 0 (Background)
//Storyboard Layer 1 (Fail)
//Storyboard Layer 2 (Pass)
//Storyboard Layer 3 (Foreground)
//Storyboard Sound Samples
//Background Colour Transformations
3,100,255,255,174

[TimingPoints]
2277,397.350993377483,4,1,0,100,1,0
11416,-100,4,1,0,100,0,1
27310,-100,4,1,0,100,0,0
67045,-100,4,1,0,100,0,1
85521,-100,4,1,0,100,0,0

[Colours]
Combo1 : 128,255,0
Combo2 : 255,0,0
Combo3 : 255,128,255
Combo4 : 192,192,192

[HitObjects]
256,160,2276,1,12,0:0:0:0:
64,56,5455,5,0,0:0:0:0:
72,192,6052,1,0,0:0:0:0:
80,328,6647,1,0,0:0:0:0:
200,264,7243,1,0,0:0:0:0:
256,368,7839,6,0,P|360:256|256:136,2,315
80,336,11416,6,4,P|48:296|48:240,1,90
136,264,12211,1,0,0:0:0:0:
136,174,12608,2,0,P|176:126|232:150,4,90
88,248,14595,2,8,P|136:288|200:296,1,90
224,232,15389,1,0,0:0:0:0:
280,160,15787,2,2,B|256:24|256:24|408:24,1,270
411,113,17376,1,0,0:0:0:0:
416,200,17773,6,8,L|352:272,1,90
266,267,18568,1,0,0:0:0:0:
175,267,18966,1,0,0:0:0:0:
111,203,19363,2,0,P|72:128|88:88,2,90
174,139,20555,2,0,L|280:136,2,90
110,75,21747,2,4,L|112:16,4,45
256,192,22939,12,0,26515,0:0:0:0:
72,48,27707,6,8,P|72:144|80:152,1,90
152,104,28502,1,0,0:0:0:0:
241,104,28899,1,0,0:0:0:0:
328,104,29297,1,0,0:0:0:0:
417,104,29694,2,0,P|368:224|344:224,1,180
253,223,30886,1,8,0:0:0:0:
189,286,31283,1,8,0:0:0:0:
125,222,31681,1,0,0:0:0:0:
61,285,32078,2,0,L|64:96,1,180
334,105,34065,5,0,0:0:0:0:
397,168,34462,1,0,0:0:0:0:
460,231,34860,1,0,0:0:0:0:
396,294,35257,1,0,0:0:0:0:
332,357,35654,2,0,L|128:360,1,180
152,269,36846,1,0,0:0:0:0:
242,269,37244,2,8,L|242:203,1,45,12|8,0:0|0:0,0:0:0:0:
332,224,37840,2,0,B|376:168|376:128,1,90
306,43,38634,2,0,P|235:130|162:11,1,270
64,56,40422,5,0,0:0:0:0:
64,146,40820,1,0,0:0:0:0:
64,235,41217,2,0,L|180:235,4,90
96,320,43204,1,0,0:0:0:0:
185,320,43601,1,0,0:0:0:0:
248,256,43999,1,0,0:0:0:0:
248,166,44396,2,4,L|144:80,1,135
368,79,45985,6,12,P|464:176|464:200,1,135
296,320,47575,2,6,P|160:304|144:296,2,135
359,256,49164,2,0,P|312:232|304:240,1,45
256,192,49760,12,0,52740,0:0:0:0:
72,56,53138,6,2,L|72:184,2,90
163,56,54330,2,4,L|160:176,2,90
256,56,55522,2,8,L|356:56,1,90
350,146,56317,2,4,L|448:144,2,90
350,236,57509,2,8,P|248:216|232:200,2,90
352,328,58701,2,0,L|402:314,2,45
260,326,59495,5,0,0:0:0:0:
169,326,59893,1,0,0:0:0:0:
79,326,60290,1,0,0:0:0:0:
79,236,60687,1,0,0:0:0:0:
79,145,61085,2,0,L|80:48,1,90
168,56,61879,1,0,0:0:0:0:
232,118,62277,1,8,0:0:0:0:
295,54,62674,1,8,0:0:0:0:
358,117,63071,1,8,0:0:0:0:
294,180,63469,1,12,0:0:0:0:
256,192,63866,12,0,66648,0:0:0:0:
80,64,67045,6,4,P|144:40|184:48,1,90
153,130,67840,1,0,0:0:0:0:
160,216,68237,2,0,P|200:264|256:240,4,90
96,153,70224,2,8,P|144:113|208:105,1,90
233,169,71018,1,0,0:0:0:0:
304,224,71416,2,6,B|280:360|280:360|432:360,1,270
411,271,73005,1,0,0:0:0:0:
416,184,73402,6,8,L|352:112,1,90
266,117,74197,1,0,0:0:0:0:
175,117,74595,1,0,0:0:0:0:
111,181,74992,2,0,P|72:256|88:296,2,90
174,245,76184,2,0,L|280:248,2,90
110,309,77376,2,4,L|112:368,4,45
256,192,78568,12,0,85522,0:0:0:0:
