osu file format v6

[General]
AudioFilename: Chala head cha la.mp3
AudioLeadIn: 0
PreviewTime: 56804
Countdown: 1
SampleSet: Normal
StackLeniency: 0.7
Mode: 0
LetterboxInBreaks: 1

[Editor]
Bookmarks: 17425,30233,42167,56429,70304,80880,99994,112607,124832,138804,152581,161993
DistanceSpacing: 0.899999976158142
BeatDivisor: 4
GridSize: 8

[Metadata]
Title:Cha-La Head-Cha-La
Artist:Hironobu Kageyama
Creator:kingcobra52
Version:Hard
Source:Dragon Ball Z
Tags:gt goku

[Difficulty]
HPDrainRate:5
CircleSize:5
OverallDifficulty:6
SliderMultiplier:1.5
SliderTickRate:1

[Events]
//Background and Video events
0,0,"Dragonball.jpg"
//Break Periods
2,90588,99429
//Storyboard Layer 0 (Background)
//Storyboard Layer 1 (Fail)
//Storyboard Layer 2 (Pass)
//Storyboard Layer 3 (Foreground)
//Storyboard Sound Samples
//Background Colour Transformations
3,100,163,162,255

[TimingPoints]
2290,388.1,4,1,0,69,1,0

[Colours]
Combo1 : 0,0,64
Combo2 : 0,128,0
Combo3 : 0,255,255
Combo4 : 253,248,22
Combo5 : 255,0,0

[HitObjects]
464,48,18202,2,0,B|304:48,1,150
248,48,18784,1,0
112,48,19172,2,4,B|16:40|0:136,1,150
104,296,20142,5,0
160,336,20336,1,8
296,336,20724,5,0
352,296,20918,2,4,B|432:280|456:176|416:112,1,225
256,0,22083,1,2
136,56,22471,6,4,B|96:118|120:222|200:238,1,225
304,328,23441,6,0,B|392:328,2,75
336,200,24411,1,2
336,64,24799,6,0,B|176:64,1,150,0|2
72,144,25576,2,4,B|312:144,1,225
72,296,26934,6,0,B|96:240|184:216|232:232,1,150
264,248,27516,2,0,B|320:264|344:216,1,75,0|8
352,168,27904,2,0,B|408:216|456:200|480:168|496:128|504:64,1,225,0|8
256,208,28680,12,4,30233
256,192,30621,5,0
256,192,31009,1,4
496,368,31591,5,0
496,304,31785,2,0,B|408:296|392:200,1,150,0|8
440,168,32367,1,0
432,104,32561,2,4,B|416:16|312:0,1,150
200,32,33338,6,4,B|120:128|208:264,1,225,4|4
376,144,34502,1,2
456,32,34890,6,4,B|536:128|448:264,1,225,4|4
344,304,35860,6,0,B|264:304,2,75
144,304,36830,1,2
144,168,37219,6,0,B|456:168,1,300,0|4
368,56,38383,1,0
232,56,38771,1,4
96,56,39159,1,0
96,56,39353,1,8
96,192,39741,1,0
96,192,39935,6,0,B|264:192,2,150
80,328,41100,6,0,B|144:272|232:336,1,150,4|8
304,224,41876,2,0,B|232:176|152:224,1,150,4|8
240,104,42652,5,0
376,104,43040,1,2
376,104,43234,1,2
376,240,43622,6,0,B|136:240,1,225,0|4
16,240,44592,1,0
16,104,44981,1,4
120,16,45369,1,0
224,104,45757,6,4,B|152:128|144:192|160:240|208:264|272:264|312:248|360:184|376:112|360:32|272:0,1,525
392,256,47891,6,2,B|392:106,1,150
392,106,48667,1,2
392,106,48862,1,2
288,192,49250,6,0,B|232:232|216:160|176:128|128:192,1,150
80,280,50026,2,0,B|112:344|32:344,1,75,0|4
184,280,50608,2,0,B|152:344|232:344,1,75,0|4
336,336,51190,6,0,B|496:336,2,150
432,240,52354,6,0,B|480:176|440:72|336:72,1,225
288,72,53131,1,8
224,72,53325,2,4,B|192:136|104:136|80:72,1,150
112,232,54101,5,0
112,232,54295,1,4
248,232,54683,1,0
248,232,54877,1,4
256,208,55071,12,4,56429
256,192,56818,5,0
256,256,57012,6,4,B|432:256,2,150
144,336,58176,6,0,B|112:382|32:392|-8:344,1,150,0|8
8,296,58758,2,0,B|80:312|144:264|96:144,1,225,0|2
48,24,59728,6,0,B|70:-8|150:1|182:47,1,150,0|8
240,16,60310,2,0,B|312:0|400:72|384:176,1,225,0|2
376,288,61281,1,2
256,352,61669,6,0,B|256:192,1,150
256,64,62445,1,0
256,64,62639,2,4,B|8:64,1,225
32,200,63609,6,0,B|40:296|176:264,1,150
208,264,64191,2,4,B|216:160|408:184,1,225,4|8
472,288,65162,1,4
352,344,65550,1,8
232,288,65938,6,4,B|64:288,1,150,4|0
80,152,66714,2,4,B|248:152,1,150
256,88,67296,1,0
320,104,67490,6,0,B|384:72|440:120|416:184,5,150,0|8|0|8|0|8
416,304,69819,5,2
280,304,70207,1,2
280,304,70401,1,2
280,240,70595,6,0,B|216:176|136:240,1,150,4|8
104,184,71177,2,0,B|136:112|240:88|320:128,1,225,0|2
376,232,72148,6,0,B|447:174|511:238,1,150,4|8
480,296,72730,2,0,B|420:327|316:303|284:231,1,225,0|2
160,288,73700,1,2
32,240,74088,6,0,B|32:72,1,150
168,88,74864,1,0
168,88,75058,2,4,B|400:88,1,225
352,216,76028,6,0,B|360:312|496:280,1,150
416,336,76610,2,4,B|376:240|448:168|512:152,1,225,4|8
416,48,77581,1,4
304,120,77969,1,8
192,48,78357,6,0,B|32:48,3,150,0|0|4|4
256,208,79910,12,4,81074
216,208,81462,6,0,B|208:296|336:296|400:200|312:72,1,300
160,208,82820,2,4,B|152:296|280:296|344:200|256:72,1,300
274,103,83791,1,8
152,48,84179,1,0
32,104,84567,6,4,B|221:336,1,300,4|0
360,336,85731,1,0
360,336,85925,2,4,B|159:112,1,300
160,48,86895,2,0,B|320:48,2,150,0|0|4
368,192,88836,5,0
368,192,89030,2,4,B|298:92|130:204|114:308|226:324|330:324|354:244|338:132|266:148|202:156|170:164|156:163,1,525,4|6
48,336,100479,6,0,B|120:288|208:336,1,150
256,328,101061,1,0
392,328,101449,2,4,B|416:256|349:160|248:160,1,225,4|4
144,136,102419,5,0
144,72,102613,1,8
256,0,103001,5,0
256,64,103196,2,0,B|256:240,1,150,4|4
320,216,103778,2,0,B|320:-16,1,225,0|2
440,48,104748,6,0,B|512:152|440:264,1,225,4|2
328,328,105718,6,0,B|240:328,2,75
128,328,106688,1,2
128,192,107076,6,0,B|278:192,1,150,0|2
208,312,107853,2,4,B|208:80,1,225,4|4
432,144,109211,6,0,B|408:200|320:224|272:208,1,150
304,144,109793,2,0,B|248:128|224:176,1,75,0|8
232,224,110181,2,0,B|128:296|8:224,1,225,0|8
256,208,110957,12,4,112510
256,192,112898,5,0
256,192,113286,1,4
440,104,113868,6,0,B|368:16|216:48,1,225
168,32,114644,1,0
120,80,114838,2,4,B|32:64|-12:169,1,150
48,272,115615,6,4,B|152:344|280:296,1,225,4|4
264,96,116779,1,2
264,232,117167,6,4,B|368:304|496:256,1,225,4|4
448,128,118137,5,0
408,72,118331,1,0
344,64,118525,1,0
256,248,119107,1,2
120,248,119496,6,0,B|120:96,1,150,0|2
8,24,120272,1,4
8,160,120660,1,0
8,296,121048,1,4
144,296,121436,5,0
144,296,121630,1,8
280,296,122018,1,0
344,296,122212,6,0,B|472:200,2,150
320,160,123377,6,0,B|376:96|296:24,1,150,4|8
168,32,124153,2,0,B|93:98|149:162,1,150,4|8
240,264,124929,5,0
240,264,125317,1,2
240,264,125511,1,2
240,128,125899,6,0,B|472:128,1,225,0|4
360,40,126869,1,0
224,40,127258,1,4
88,40,127646,1,0
88,176,128034,6,4,B|66:219|21:225|-30:186|-30:146|-9:92|36:46|98:43|143:76|185:128|200:200|155:286|112:312,1,525
384,304,130168,2,0,B|384:136,2,150,2|2|2
384,304,131139,1,2
248,304,131527,6,0,B|199:360|176:296|143:256|104:312,1,150
112,160,132303,2,0,B|144:96|64:96,1,75,0|4
232,80,132885,2,0,B|200:16|280:16,1,75,0|4
384,16,133467,6,0,B|384:184,2,150
472,120,134631,6,0,B|523:142|539:214|491:278,1,150
392,320,135408,1,8
392,256,135602,2,4,B|360:192|272:192|248:256,1,150
168,320,136378,5,0
168,320,136572,1,4
168,184,136960,1,0
168,184,137154,1,4
256,208,137348,12,4,138706
256,192,139095,5,0
256,128,139289,6,4,B|344:128,1,75
328,64,139677,2,4,B|248:64,1,75
256,0,140065,2,4,B|336:0,1,75
328,64,140453,6,0,B|360:18|440:8|480:56,1,150,0|8
440,104,141035,2,0,B|368:88|304:136|352:256,1,225,0|2
464,360,142005,6,0,B|442:392|362:383|330:337,1,150,0|8
272,368,142587,2,0,B|200:384|112:312|128:208,1,225,0|2
136,96,143558,1,2
256,32,143946,6,0,B|256:192,1,150
256,320,144722,1,0
256,320,144916,2,4,B|504:320,1,225
480,184,145886,6,0,B|472:88|336:120,1,150
304,120,146468,2,4,B|296:224|104:200,1,225,4|8
40,96,147439,1,4
160,40,147827,1,8
280,96,148215,6,4,B|448:96,1,150,4|0
432,232,148991,2,4,B|264:232,1,150
256,296,149573,1,0
192,280,149767,6,0,B|128:312|72:264|96:200,5,150,0|8|0|8|0|8
96,80,152096,5,2
232,80,152484,1,2
232,80,152678,1,2
232,144,152872,6,0,B|296:208|376:144,1,150,4|8
408,200,153454,2,0,B|376:272|272:296|192:256,1,225,0|2
136,152,154425,6,0,B|65:210|1:146,1,150,4|8
32,88,155007,2,0,B|92:57|196:81|228:153,1,225,0|2
352,96,155977,1,2
480,144,156365,6,0,B|480:312,1,150
344,296,157141,1,0
344,296,157335,2,4,B|112:296,1,225
160,168,158305,6,0,B|152:72|16:104,1,150
96,48,158887,2,4,B|136:144|64:216|0:232,1,225,4|8
96,336,159858,1,4
208,264,160246,1,8
320,336,160634,6,0,B|480:336,3,150,0|0|4|4
256,208,162187,12,4,163351
328,192,163739,6,4,B|352:136|256:64|160:136|200:200|200:200,1,225
328,344,164903,1,2
192,344,165292,1,2
256,224,165680,6,0,B|88:224,1,150
104,88,166456,1,0
104,88,166650,2,4,B|336:88,1,225
424,184,167620,6,0,B|520:192|488:328,1,150
424,296,168202,2,4,B|416:200|280:232,1,150
314,225,168784,1,8
192,288,169173,1,4
72,232,169561,1,8
192,168,169949,6,0,B|24:168,1,150,4|0
120,56,170725,2,4,B|280:56,1,150
320,104,171307,1,0
376,64,171501,6,0,B|432:40|496:80|488:136,3,150,0|8|0|8
488,264,173054,2,0,B|500:307|442:355|383:338,1,150,0|8
248,336,173830,5,2
248,200,174218,1,2
184,200,174412,1,2
120,200,174606,6,0,B|76:168|68:64|99:35,1,150,4|8
16,72,175188,2,0,B|64:128|168:136|232:72,1,225,0|2
344,32,176158,6,0,B|389:62|408:152|366:196,1,150,0|8
440,136,176740,2,0,B|411:104|307:112|275:158,1,150,0|2
298,137,177323,1,2
192,216,177711,1,2
88,296,178099,6,0,B|240:376,1,150
352,368,178875,1,0
352,368,179069,1,4
488,368,179457,1,0
488,368,179651,1,4
496,232,180039,6,0,B|488:136|352:168,1,150
392,232,180621,2,4,B|552:224|488:56,1,225,4|8
368,32,181592,1,4
232,32,181980,1,8
176,152,182368,6,4,L|344:152|176:352|368:352,1,600
256,208,184114,12,4,185085
