osu file format v5

[General]
AudioFilename: 01 SONIC DRIVE (TV version).mp3
AudioLeadIn: 1489
PreviewTime: -1
Countdown: 1
SampleSet: Normal
StackLeniency: 0.7
Mode: 0
LetterboxInBreaks: 1
EditorDistanceSpacing: 0.899999976158142

[Metadata]
Title:Sonic Drive (TV Size)
Artist:Hironobu Kageyama & Hideaki Takatori
Creator:ztrot
Version:Insane
Source:Sonic X
Tags:Sonic X anime sonic the hedgehog

[Difficulty]
HPDrainRate:7
CircleSize:4
OverallDifficulty:8
SliderMultiplier:1.4
SliderTickRate:2

[Events]
//Background and Video events
0,0,"235070Sonic X OST - Cover Front.jpg"
1,0,"01 - Sonic Drive (TV Version).avi"
//Break Periods
//Storyboard Layer 0 (Background)
//Storyboard Layer 1 (Failing)
//Storyboard Layer 2 (Passing)
//Storyboard Layer 3 (Foreground)
//Storyboard Sound Samples
//Background Colour Transformations
3,100,163,162,255

[TimingPoints]
357,294.117647058824,4,2,0,70,1,0
1165,-100,4,1,0,70,0,0
1258,-100,4,1,0,70,0,0
1542,-100,4,1,0,70,0,0
48592,-100,4,1,0,70,0,1
68445,-100,4,1,0,70,0,0

[Colours]
Combo1 : 255,128,0
Combo2 : 0,0,255
Combo3 : 255,0,0

[HitObjects]
464,336,357,1,0
432,216,651,1,0
328,144,945,1,0
328,144,1092,1,0
328,144,1239,1,4
200,144,1533,5,0
96,64,1827,1,8
0,152,2121,1,0
0,280,2415,1,8
96,360,2709,1,0
200,280,3004,1,12
264,280,3151,1,0
392,280,3445,1,0
392,216,3592,1,8
288,144,3886,5,0
192,64,4180,1,8
96,144,4474,1,0
128,264,4768,1,8
256,264,5062,1,0
192,168,5357,1,12
192,168,5504,1,0
320,168,5798,1,0
320,168,5945,1,8
256,56,6239,5,4
256,56,6386,1,0
256,56,6533,1,0
256,120,6680,1,4
256,120,6827,1,0
256,120,6974,1,0
200,88,7121,1,4
200,88,7268,1,0
200,88,7415,1,0
200,88,7562,1,4
128,264,8004,5,0
192,264,8151,1,0
256,264,8298,1,4
152,336,8592,6,0,B|76:367|27:299|30:246|61:213,1,210
112,176,9180,1,0
168,144,9327,1,0
232,128,9474,1,8
360,136,9768,2,0,B|504:184|392:320,1,210
344,296,10357,1,0
280,296,10504,1,0
216,296,10651,1,8
88,296,10945,6,0,B|8:264|0:168|48:120,1,210
96,88,11533,1,0
160,72,11680,1,0
224,72,11827,1,8
352,80,12121,2,0,B|496:96|424:256,1,210
392,272,12709,1,0
336,304,12857,1,0
272,304,13004,1,8
144,288,13298,6,4,B|0:264|0:152|48:144,1,210,4|0
208,88,14180,1,8
376,88,14474,1,0
376,152,14621,1,0
376,216,14768,1,0
376,280,14915,1,0
440,280,15062,1,0
440,216,15209,1,0
440,152,15357,1,0
440,88,15504,1,0
376,88,15651,5,4
304,192,15945,1,8
176,192,16239,1,0
176,128,16386,1,0
176,64,16533,1,8
48,64,16827,1,0
48,192,17121,1,8
112,320,17415,1,0
112,256,17562,1,0
112,192,17709,1,8
112,64,18004,5,0
112,128,18151,2,0,B|216:128,1,70,0|8
240,128,18445,2,0,B|240:224,1,70
240,256,18739,2,0,B|312:256,1,70,0|8
368,256,19033,1,0
496,256,19327,2,0,B|528:168|464:104,1,140
352,104,19915,5,8
288,24,20062,1,8
224,104,20209,1,12
160,104,20357,5,4
160,232,20651,1,8
160,296,20798,1,0
288,296,21092,1,0
224,296,21239,1,8
288,296,21386,1,0
392,224,21680,1,0
328,224,21827,1,8
296,168,21974,1,0
168,168,22268,1,0
160,232,22415,1,8
104,192,22562,1,0
104,128,22709,5,4
216,80,23004,1,8
280,80,23151,1,0
408,80,23445,1,0
408,144,23592,1,8
408,208,23739,1,0
408,336,24033,1,0
344,336,24180,1,8
280,336,24327,1,0
272,208,24621,1,0
328,168,24768,1,8
312,104,24915,1,0
248,104,25062,1,4
224,160,25209,5,0
184,104,25357,1,8
152,160,25504,1,0
112,104,25651,1,0
72,160,25798,1,0
112,208,25945,1,8
112,272,26092,1,0
240,272,26386,1,0
368,272,26680,1,0
368,144,26974,1,0
432,144,27121,1,8
496,144,27268,1,0
432,144,27415,1,0
432,208,27562,5,0
432,272,27709,1,8
400,328,27857,1,0
336,328,28004,1,0
272,328,28151,1,0
208,328,28298,1,8
144,328,28445,2,0,B|144:176,1,140
144,128,28886,1,8
144,64,29033,1,0
272,64,29327,5,8
208,128,29474,1,8
272,192,29621,1,8
272,128,29768,6,0,B|320:80|424:88|416:208,1,210,4|0
344,296,30504,1,0
280,296,30651,1,8
216,296,30798,1,0
88,296,31092,1,0
88,232,31239,1,8
88,168,31386,1,0
208,168,31680,1,0
160,128,31827,1,8
208,88,31974,1,0
272,88,32121,5,0
400,88,32415,1,8
400,152,32562,1,0
400,280,32857,1,0
336,280,33004,1,8
272,280,33151,1,0
144,280,33445,1,0
80,280,33592,1,8
72,152,33886,5,8
168,152,34033,1,8
104,56,34180,1,8
208,56,34327,1,8
312,56,34474,5,4
360,144,34768,1,8
256,216,35062,1,0
192,216,35209,1,0
128,216,35357,1,8
64,216,35504,2,0,B|64:336|264:368|464:336|456:208|456:200,1,490,0|12
456,88,36827,5,0
328,88,37121,1,8
200,88,37415,1,0
136,88,37562,1,0
72,88,37709,1,8
72,152,37857,1,0
72,280,38151,1,0
136,280,38298,1,8
200,280,38445,1,0
328,280,38739,1,0
392,280,38886,1,8
392,152,39180,5,0
288,80,39474,1,8
224,80,39621,1,0
96,80,39915,1,0
96,144,40062,1,8
96,208,40209,1,0
160,208,40357,5,0
288,208,40651,1,8
288,144,40798,1,0
160,144,41092,1,0
160,208,41239,1,8
88,312,41533,5,4
216,312,41827,1,8
280,312,41974,1,4
408,312,42268,1,8
408,248,42415,1,4
408,120,42709,1,8
408,56,42857,1,4
304,120,43151,1,8
240,120,43298,1,0
112,120,43592,1,8
112,248,43886,5,0
240,248,44180,1,8
304,248,44327,1,0
432,248,44621,1,0
432,184,44768,1,8
432,120,44915,1,4
256,192,45209,12,8,47121
168,48,47415,5,0
112,72,47562,1,0
80,128,47709,1,0
88,192,47857,1,0
136,232,48004,1,0
200,232,48151,1,0
248,192,48298,1,0
264,128,48445,1,0
328,128,48592,6,2,B|488:128,1,140,2|10
456,256,49180,1,2
392,256,49327,1,0
328,256,49474,1,10
328,128,49768,1,0
432,192,50062,1,8
432,192,50209,1,0
432,320,50504,1,0
432,320,50651,1,12
304,320,50945,6,2,B|136:320,1,140,2|10
64,240,51533,1,2
104,192,51680,1,0
168,184,51827,1,10
296,184,52121,1,0
424,184,52415,1,8
424,184,52562,1,0
360,72,52857,1,0
360,72,53004,1,12
232,72,53298,5,4
104,72,53592,1,8
104,200,53886,1,0
104,200,54033,1,0
104,200,54180,1,8
168,200,54327,5,0
168,200,54474,1,0
296,200,54768,1,8
408,136,55062,1,0
408,136,55209,1,0
344,136,55357,1,8
280,136,55504,1,0
152,136,55798,1,0
152,136,55945,1,12
136,360,56533,5,8
176,312,56680,1,0
216,360,56827,1,0
256,312,56974,1,0
296,360,57121,1,8
336,312,57268,1,0
328,184,57562,1,0
328,184,57709,1,12
208,184,58004,6,2,B|40:184,1,140
72,56,58592,1,2
136,56,58739,1,0
200,56,58886,1,10
328,56,59180,1,0
328,184,59474,1,8
328,184,59621,1,4
200,184,59915,1,0
136,184,60062,1,8
232,264,60357,6,2,B|384:264,1,140,2|10
496,264,60945,1,2
496,200,61092,1,0
496,136,61239,1,10
368,136,61533,1,0
240,136,61827,1,8
240,136,61974,1,4
240,264,62268,1,0
240,264,62415,1,8
112,264,62709,5,0
112,136,63004,1,8
240,136,63298,1,0
240,136,63445,1,0
240,136,63592,1,8
304,136,63739,5,0
360,248,64033,1,0
360,248,64180,1,8
488,248,64474,1,0
448,200,64621,1,0
488,152,64768,1,8
448,104,64915,1,0
320,104,65209,1,0
320,104,65357,1,8
72,40,65945,5,8
200,40,66239,1,4
328,40,66533,1,8
328,40,66680,1,4
456,40,66974,1,0
456,104,67121,1,8
424,160,67268,1,4
296,168,67562,1,0
296,232,67709,1,8
296,296,67857,1,4
168,296,68151,1,8
168,232,68298,1,8
40,232,68592,5,4
168,232,68886,1,8
232,232,69033,1,0
232,40,69474,1,8
360,40,69768,1,0
360,168,70062,1,8
360,232,70209,1,0
168,232,70651,1,8
248,320,70945,2,0,B|368:320|464:320|464:240|464:168|464:112|400:32,1,420,4|0
360,64,71974,1,0
232,64,72268,5,0
176,128,72415,1,8
232,184,72562,1,0
288,128,72709,1,0
232,64,72856,1,0
176,128,73004,1,8
232,184,73151,1,0
288,128,73298,1,4
160,160,73592,5,8
96,160,73739,1,0
88,344,74180,1,0
216,344,74474,1,12
344,344,74768,1,0
344,216,75062,1,0
344,216,75209,1,0
176,120,75651,5,0
304,120,75945,1,8
368,120,76092,1,0
240,120,76386,1,0
240,184,76533,1,8
240,312,76827,5,0
112,312,77121,1,8
112,248,77268,1,0
112,120,77562,1,0
112,184,77709,1,8
240,184,78004,5,4
368,184,78298,1,8
368,248,78445,1,0
368,120,78739,1,0
368,56,78886,1,8
240,56,79180,6,8,B|144:56,1,70,12|0
104,72,79474,2,0,B|48:144,1,70,12|0
56,192,79768,2,0,B|120:240,1,70,12|0
168,256,80062,2,0,B|256:272,1,70,12|0
296,264,80356,5,0
296,136,80651,1,8
392,56,80945,1,0
488,136,81239,1,8
488,264,81533,1,0
392,344,81827,1,12
392,280,81974,1,0
392,152,82268,1,0
392,216,82415,1,8
264,216,82709,5,0
192,112,83004,1,8
112,216,83298,1,0
192,312,83592,1,8
264,216,83886,1,0
192,112,84180,1,12
192,176,84327,1,0
192,312,84621,1,0
192,248,84768,1,8
72,200,85062,5,4
72,200,85209,1,0
72,200,85356,1,0
72,136,85504,1,4
72,136,85651,1,0
72,136,85798,1,0
72,72,85945,1,4
72,72,86092,1,0
72,72,86239,1,0
72,72,86386,1,8
320,104,86827,5,8
320,168,86974,1,0
320,232,87121,1,0
216,296,87415,1,8
216,232,87562,1,8
216,168,87709,1,8
216,104,87856,1,8
104,168,88151,1,0
104,232,88298,1,12
