osu file format v5

[General]
AudioFilename: 01 SONIC DRIVE (TV version).mp3
AudioLeadIn: 1511
PreviewTime: -1
Countdown: 1
SampleSet: Normal
StackLeniency: 0.7
Mode: 0
LetterboxInBreaks: 1
EditorDistanceSpacing: 0.800000011920929

[Metadata]
Title:Sonic Drive (TV Size)
Artist:Hironobu Kageyama & Hideaki Takatori
Creator:ztrot
Version:Hard
Source:Sonic X
Tags:Sonic X anime sonic the hedgehog

[Difficulty]
HPDrainRate:6
CircleSize:4
OverallDifficulty:7
SliderMultiplier:1.4
SliderTickRate:2

[Events]
//Background and Video events
0,0,"235070Sonic X OST - Cover Front.jpg"
1,0,"01 - Sonic Drive (TV Version).avi"
//Break Periods
//Storyboard Layer 0 (Background)
//Storyboard Layer 1 (Failing)
//Storyboard Layer 2 (Passing)
//Storyboard Layer 3 (Foreground)
//Storyboard Sound Samples
//Background Colour Transformations
3,100,163,162,255

[TimingPoints]
357,294.117647058824,4,2,0,70,1,0
1165,-100,4,1,0,70,0,0
48592,-100,4,1,0,70,0,1
68445,-100,4,1,0,70,0,0

[Colours]
Combo1 : 255,128,0
Combo2 : 0,0,255
Combo3 : 255,0,0

[HitObjects]
448,64,357,1,0
320,64,651,1,0
208,64,945,1,0
152,64,1092,1,0
96,64,1239,1,4
64,176,1533,5,0
64,288,1827,1,8
176,320,2121,1,0
288,288,2415,1,8
288,176,2709,1,0
176,128,3004,1,12
432,336,3886,5,0
496,240,4180,1,8
432,144,4474,1,0
320,144,4768,1,8
256,240,5062,1,0
320,336,5357,1,12
456,40,6239,5,0
56,40,6680,1,0
56,344,7121,1,0
456,344,7562,1,0
312,271,8004,5,0
256,272,8151,1,0
200,272,8298,1,0
256,176,8592,6,0,B|332:207|381:139|378:86|347:53,1,210
173,55,9474,1,0
80,128,9768,2,0,B|16:208|64:304|112:336,1,210
256,336,10651,1,0
368,336,10945,6,0,B|432:272|432:176|400:144,1,210
232,144,11827,1,0
229,255,12121,2,0,B|83:283|102:137,1,210
363,47,13298,6,0,B|477:108|429:254,1,210
312,336,14180,1,0
208,288,14474,1,4
432,48,15651,5,0
320,48,15945,1,8
208,48,16239,1,0
208,104,16386,1,0
208,160,16533,1,8
96,160,16827,1,0
96,272,17121,1,8
0,216,17415,1,0
0,160,17562,1,0
0,104,17709,1,8
112,96,18004,5,0
112,160,18151,2,0,B|216:160,1,70,0|8
240,160,18445,2,0,B|240:256,1,70
240,288,18739,2,0,B|312:288,1,70,0|8
368,288,19033,1,0
480,288,19327,2,0,B|512:200|448:136,1,140
352,152,19915,1,8
240,152,20209,1,8
184,152,20357,5,4
40,64,20798,1,0
152,64,21092,1,0
95,160,21386,2,0,B|-24:312|160:304,1,210,0|8
352,304,22415,1,12
464,304,22709,5,0
464,192,23004,1,8
408,192,23151,1,0
296,192,23445,1,0
296,80,23739,1,0
136,136,24180,1,8
136,360,24768,1,8
304,360,25209,5,0
352,328,25357,1,8
304,296,25504,1,0
352,264,25651,1,0
304,232,25798,1,0
352,200,25945,1,8
304,168,26092,1,0
192,168,26386,1,0
192,280,26680,1,0
80,280,26974,1,0
80,168,27268,1,0
80,112,27415,1,0
80,56,27562,5,0
136,56,27709,1,8
192,56,27857,1,0
248,56,28004,1,0
304,56,28151,1,0
360,56,28298,1,8
360,112,28445,1,0
360,224,28739,1,0
248,224,29033,1,0
248,112,29327,1,8
248,224,29621,1,8
192,224,29768,6,0,B|144:176|40:184|48:304,1,210
160,312,30504,1,0
272,312,30798,1,0
384,312,31092,1,0
408,264,31239,1,8
376,216,31386,1,0
376,104,31680,1,0
416,64,31827,1,8
376,24,31974,1,0
336,64,32121,5,0
224,64,32415,1,8
168,64,32562,1,0
168,176,32857,1,0
168,288,33151,1,0
448,320,33886,5,8
336,320,34180,1,8
392,224,34474,1,8
280,224,34768,1,0
168,224,35062,1,0
168,168,35209,1,0
112,168,35357,1,8
56,168,35504,2,0,B|56:48|256:16|456:48|448:176|448:184,1,490,0|8
448,280,36827,5,0
336,280,37121,1,8
224,280,37415,1,0
224,280,37562,1,0
112,280,37857,1,0
112,168,38151,1,0
488,56,39180,5,0
488,168,39474,1,8
432,168,39621,2,0,B|280:168,1,140
120,168,40357,1,0
232,168,40651,1,8
232,112,40798,2,0,B|80:112,1,140
88,280,41533,5,4
256,280,41974,1,4
424,280,42415,1,4
416,112,42857,1,4
248,112,43298,1,0
136,112,43592,1,0
192,208,43886,5,0
304,208,44180,1,8
304,208,44327,1,0
304,320,44621,1,0
192,320,44915,1,4
256,192,45209,12,4,48298
136,48,48592,6,2,B|136:192,1,140
248,192,49180,2,2,B|248:16,1,140
360,48,49768,1,0
360,160,50062,1,8
360,160,50209,1,0
360,328,50651,1,8
248,328,50945,6,2,B|72:328,1,140
112,216,51533,2,2,B|272:216,1,140
360,216,52121,1,0
360,104,52415,1,8
360,104,52562,1,0
192,104,53004,1,8
80,104,53298,5,0
80,216,53592,1,8
192,216,53886,1,0
192,216,54033,1,0
360,216,54474,5,0
472,216,54768,1,8
472,328,55062,1,0
472,328,55209,1,0
360,328,55504,1,0
264,272,55798,1,0
264,272,55945,1,4
40,280,56533,5,8
40,168,56827,1,0
152,168,57121,1,8
152,280,57415,1,0
264,280,57709,1,8
264,168,58004,2,10,B|408:232,1,140,2|10
504,232,58592,2,2,B|504:72,1,140,2|10
392,88,59180,1,0
280,88,59474,1,8
224,88,59621,1,4
360,328,60357,6,10,B|360:184,1,140,10|10
248,192,60945,2,2,B|248:336,1,140
136,328,61533,1,0
136,216,61827,1,8
136,216,61974,1,4
48,72,62415,1,8
136,136,62709,5,0
248,136,63004,1,8
360,136,63298,1,0
360,136,63445,1,4
360,248,63739,5,0
472,248,64033,1,0
472,248,64180,1,8
472,136,64474,1,0
472,80,64621,1,0
360,80,64915,1,0
248,80,65209,1,0
248,136,65357,1,12
136,328,65945,5,8
248,328,66239,1,4
416,328,66680,1,4
416,104,67268,1,4
192,104,67857,1,4
192,272,68298,1,8
304,272,68592,5,4
416,272,68886,1,8
472,272,69033,1,0
472,104,69474,1,8
360,104,69768,5,0
248,104,70062,1,8
192,104,70209,1,0
192,272,70651,1,8
280,336,70945,6,0,B|400:336|496:336|496:256|496:184|496:128|392:72,1,420
368,88,71974,1,8
32,344,73298,5,4
200,344,73739,1,0
200,176,74180,1,0
312,176,74474,1,12
424,176,74768,1,0
424,64,75062,1,0
368,64,75209,1,0
256,192,75430,12,0,78886
88,64,79180,6,8,B|48:136,1,70,12|0
64,176,79474,2,8,B|104:240,1,70,12|0
136,272,79768,2,8,B|208:288,1,70,12|0
256,288,80062,2,8,B|344:256,1,70,12|0
360,224,80356,5,0
360,112,80651,1,8
256,64,80945,1,0
160,120,81239,1,8
160,224,81533,1,0
256,288,81827,1,8
40,32,82709,5,0
40,144,83004,1,8
40,256,83298,1,0
152,256,83592,1,8
152,144,83886,1,0
152,32,84180,1,12
480,336,85062,5,0
32,336,85504,1,0
32,48,85945,1,0
480,48,86386,1,0
352,160,86827,5,8
296,160,86974,1,0
240,160,87121,1,0
240,272,87415,1,8
184,272,87562,1,8
128,272,87709,1,8
128,216,87856,1,8
128,104,88151,1,0
128,104,88298,1,12
