osu file format v9

[General]
AudioFilename: campanella_op.mp3
AudioLeadIn: 3000
PreviewTime: 95909
Countdown: 0
SampleSet: Soft
StackLeniency: 0.7
Mode: 0
LetterboxInBreaks: 1

[Editor]
Bookmarks: 28020,44571,57813,76020,97537,109951,117399,138916
DistanceSpacing: 1.5
BeatDivisor: 4
GridSize: 4

[Metadata]
Title:Shukufuku no Campanella
Artist:Hiromi Sato and NANA
Creator:R a i n
Version:SakiK
Source:Shukufuku no Campanella
Tags:darknessangel r_a_i_n sakik laurier

[Difficulty]
HPDrainRate:5
CircleSize:4
OverallDifficulty:5
ApproachRate:7
SliderMultiplier:1.6
SliderTickRate:1

[Events]
//Background and Video events
0,0,"BG.jpg"
Video,0,"campanella.avi"
//Break Periods
2,89453,91044
//Storyboard Layer 0 (Background)
//Storyboard Layer 1 (Fail)
//Storyboard Layer 2 (Pass)
//Storyboard Layer 3 (Foreground)
//Storyboard Sound Samples
//Background Colour Transformations
3,100,163,162,255

[TimingPoints]
703,600,4,2,1,80,1,0
24703,413.793103448276,4,2,1,80,1,0
26151,-100,4,2,1,5,0,0
26358,-100,4,2,1,60,0,0
44358,-100,4,2,1,60,0,0
56151,-100,4,2,1,60,0,0
57806,-100,4,2,1,60,0,0
76013,-100,4,2,1,70,0,0
97530,-100,4,2,1,80,0,1
128978,-100,4,2,1,80,0,0
132289,-100,4,2,1,80,0,0
138909,-100,4,2,1,80,0,0

[Colours]
Combo1 : 255,128,0
Combo2 : 255,0,0
Combo3 : 255,255,128
Combo4 : 128,128,192

[HitObjects]
162,217,703,2,0,B|116:172|123:105,2,120,0|2|0
239,273,1903,2,0,B|277:259|322:264,1,80
408,231,2503,2,0,B|436:194|421:153,1,80,2|0
359,82,3103,2,0,B|318:53|284:46|247:57|211:88,1,160,0|2
288,148,4003,1,0
288,148,4303,2,0,B|287:237|224:292,1,160,2|0
129,293,5203,6,0,B|93:270,1,40
67,232,5503,2,0,B|104:195|115:120|89:74,1,160,2|0
181,44,6403,2,0,B|209:75|251:85,2,80,0|2|0
93,83,7303,2,0,B|77:124|34:148,1,80,2|0
36,238,7903,2,0,B|94:212|161:233,2,120,0|2|0
36,238,9103,1,2
311,320,10003,5,0
311,320,10153,1,0
311,320,10303,2,0,B|331:260|364:222|411:198,1,160
402,119,11203,2,0,B|415:161|407:206,1,80,0|2
317,164,11803,2,0,B|275:157|249:124,1,80,0|2
199,42,12403,1,0
82,70,12703,2,0,B|105:134|92:192,2,120,0|2|0
199,42,13903,2,0,B|173:126|216:202,1,160,2|0
307,212,14803,5,0
326,225,14953,1,0
343,240,15103,2,0,B|376:304|341:358,2,120,2|0|2
379,151,16303,1,0
379,151,16453,1,2
309,84,16753,1,0
309,84,16903,2,0,B|274:112|224:116,1,80,2|0
141,130,17503,6,0,B|162:194|130:249,2,120,0|2|0
210,63,18703,1,0
210,63,18853,1,2
284,124,19153,1,0
284,124,19303,2,0,B|296:169|336:182,1,80,2|0
343,277,19903,6,0,B|303:309|264:305|230:272,1,120
219,257,20503,1,2
203,162,20803,1,0
284,112,21103,2,0,B|344:136|403:117,2,120,0|2|0
193,78,22303,5,0
58,129,22753,1,2
129,253,23203,1,0
129,253,23503,1,0
260,194,23953,1,0
260,194,24403,1,2
256,192,24703,12,0,26151
301,201,26565,6,0,B|328:235|336:273,2,80,0|8|0
221,198,27185,2,0,B|149:185|129:122,2,120,0|8|0
267,132,28013,5,4
338,96,28220,1,0
417,105,28427,2,0,B|448:137|452:174,1,80,8|0
415,246,28840,2,0,B|423:313|483:348,2,120,0|8|0
361,186,29668,2,0,B|317:138|249:126,2,120,0|8|0
341,263,30496,2,0,B|293:299|227:308,1,120
230,307,30909,1,8
135,289,31116,1,0
112,195,31323,6,0,B|148:137|124:75,2,120,0|8|0
182,233,32151,2,0,B|248:217|275:156,2,120,0|8|0
191,312,32978,2,0,B|231:325|270:314,1,80
308,301,33289,1,0
337,273,33392,2,0,B|348:229|379:206,1,80,8|0
446,163,33806,2,0,B|439:117|414:88|369:84|326:109,1,160,0|8
257,148,34427,5,0
178,134,34634,2,0,B|139:122|117:85,1,80,4|0
37,90,35047,1,8
37,90,35254,1,0
53,168,35461,2,0,B|84:195|90:239,1,80
140,299,35875,1,8
140,299,36082,1,0
140,299,36289,6,0,B|298:299,1,160,4|8
342,231,36909,2,0,B|263:231,1,80
215,165,37323,2,0,B|204:122|166:97,1,80,0|8
93,123,37737,1,0
89,203,37944,5,0
138,265,38151,1,0
204,219,38358,1,8
259,276,38565,1,0
259,276,38668,1,8
312,216,38875,1,0
312,216,38978,1,8
376,263,39185,2,0,B|406:233|444:221,1,80,8|0
442,140,39599,6,0,B|421:104|386:82,1,80,4|0
306,78,40013,1,8
229,101,40220,2,0,B|193:79,1,40,0|8
121,111,40530,2,0,B|90:141,1,40,0|8
43,202,40840,2,0,B|79:225|86:267,1,80,0|8
159,298,41254,6,0,B|147:338|113:366,2,80,4|0|8
197,227,41875,1,0
197,227,41978,1,8
266,187,42185,1,0
266,187,42289,1,8
309,120,42496,2,0,B|333:86|372:65,1,80,0|8
429,118,42909,6,0,B|466:171|456:236,2,120,4|8|4
367,65,43737,1,8
367,65,43840,1,0
367,65,43944,1,0
367,65,44151,2,0,B|287:65,1,80,8|0
209,88,44565,6,0,B|172:108|154:151,1,80,4|0
165,225,44978,1,8
208,292,45185,1,0
280,328,45392,2,0,B|360:328,1,80
400,260,45806,2,0,B|320:260,1,80,8|0
264,204,46220,2,0,B|260:156|284:120|332:112|376:136,1,160,0|8
343,208,46840,1,0
343,208,47047,1,0
132,323,47668,5,0
119,307,47771,1,0
108,290,47875,2,0,B|82:254|84:214,1,80,4|0
97,135,48289,1,8
138,66,48496,2,0,B|104:40|60:40,2,80
182,132,49116,2,0,B|218:157|258:148,1,80,8|0
330,112,49530,6,0,B|387:115|427:158|430:219,1,160,0|8
377,279,50151,1,0
301,253,50358,2,0,B|262:254,2,40
377,279,50771,1,8
292,142,51185,6,0,B|269:109|222:92,1,80
210,85,51496,1,0
189,85,51599,1,8
110,140,51806,1,0
129,234,52013,2,0,B|99:294|44:323,2,120,0|2|0
110,140,52840,5,0
186,162,53047,1,0
261,135,53254,2,0,B|304:126|343:137,1,80,8|0
406,181,53668,2,0,B|404:260|334:321,1,160,0|8
259,346,54289,1,0
187,310,54496,5,0
187,310,54599,1,0
187,310,54703,1,0
150,239,54909,2,0,B|173:203|169:161,2,80,8|0|0
230,244,55530,5,0
278,179,55737,1,8
350,144,55944,1,0
426,166,56151,2,0,B|447:242|400:321,1,160,2|0
401,319,56771,1,2
401,319,57185,2,0,B|363:341|323:349,2,80,0|2|0
357,251,57806,6,0,B|325:219|317:183,1,80
285,108,58220,1,8
208,85,58427,1,0
131,106,58634,2,0,B|103:146|119:186,1,80
194,203,59047,2,0,B|206:243|190:283,1,80,8|0
80,330,59461,2,0,B|52:250|120:178,1,160,0|8
181,136,60082,1,0
256,110,60289,2,0,B|288:84|299:45,2,80,0|0|8
236,187,60909,5,0
236,187,61013,1,0
236,187,61116,2,0,B|276:213|288:254,1,80
315,322,61530,2,0,B|348:351|398:338,1,80,8|0
416,263,61944,6,0,B|448:184,1,80
399,122,62358,2,0,B|336:67,1,80,8|0
260,87,62771,2,0,B|204:124|144:115,2,120,0|2|0
340,82,63599,2,0,B|369:53,2,40
307,155,64013,2,0,B|330:194|316:240,1,80,8|0
253,279,64427,6,0,B|207:278|171:290,1,80
155,297,64737,1,0
137,306,64840,1,8
65,269,65047,1,0
69,189,65254,2,0,B|106:167|139:129|130:90|98:55,1,160,0|8
228,153,66082,6,0,B|264:177|308:165,1,80,4|0
322,156,66392,1,0
337,143,66496,1,8
396,89,66703,1,0
432,159,66909,2,0,B|449:201|488:218,2,80,0|0|8
396,89,67530,5,0
396,89,67634,1,0
396,89,67737,2,0,B|357:68|318:63,1,80
241,79,68151,1,8
175,124,68358,1,0
95,114,68565,2,0,B|49:180,1,80
113,227,68978,2,0,B|142:302,1,80,8|0
217,330,69392,5,4
291,269,69599,1,0
200,237,69806,1,8
217,330,70013,1,0
217,330,70116,1,0
291,269,70323,2,0,B|329:245,1,40,0|8
408,198,70634,2,0,B|369:178|360:137,1,80,8|0
266,114,71047,6,0,B|231:99|200:59,2,80,4|0|8
299,204,71668,1,0
299,204,71771,1,8
213,248,71978,1,0
213,248,72082,1,0
116,249,72289,1,8
47,181,72496,1,0
113,112,72703,5,4
47,181,72909,1,0
52,276,73116,1,8
135,323,73323,2,0,B|171:347,1,40
253,299,73634,2,0,B|284:270,1,40,0|8
299,177,73944,2,0,B|339:192|363:222,1,80,8|0
435,286,74358,6,0,B|391:333|336:352,2,120,4|0|4
427,190,75185,1,0
427,190,75289,1,0
427,190,75392,2,0,B|396:157|386:121,1,80,0|8
307,66,75806,1,0
212,82,76013,2,0,B|174:104|148:184|174:227,1,160,4|8
251,280,76634,1,0
172,225,76840,2,0,B|143:259|154:303,2,80,0|0|8
262,191,77461,5,0
262,191,77565,1,0
262,191,77668,2,0,B|305:176|352:195|370:229|368:277,1,160,0|8
273,289,78289,1,0
182,322,78496,2,0,B|139:317|111:287,1,80
59,206,78909,6,0,B|95:185|110:143,1,80,8|0
114,121,79220,1,0
130,103,79323,2,0,B|182:70|244:72,2,120,0|2|0
184,182,80151,1,0
184,182,80565,2,0,B|353:182,1,160,8|0
205,49,81392,1,2
70,186,81806,1,2
208,318,82220,1,2
357,197,82634,6,0,B|361:117|454:75,1,160,0|8
452,173,83254,1,0
358,196,83461,2,0,B|362:236|333:272,2,80,0|0|8
267,163,84082,5,0
267,163,84185,1,0
267,163,84289,1,2
45,71,84703,1,2
168,276,85116,1,2
185,36,85530,1,2
24,214,85944,1,6
265,160,86358,6,0,B|309:158|342:201,1,80,8|0
410,252,86771,2,0,B|432:218|432:174,1,80
384,92,87185,1,8
384,92,87392,1,0
295,53,87599,2,0,B|214:38|136:57,1,160,0|8
137,153,88220,2,0,B|106:226|149:310,1,160
242,291,88840,2,0,B|275:320|315:334,2,80,8|0|4
279,154,91944,6,0,B|366:154,1,80,4|8
166,156,92565,1,4
166,156,93392,6,0,B|144:211|165:276,2,120,4|0|4
243,99,94220,1,4
265,91,94323,1,0
289,90,94427,1,0
312,95,94530,1,0
332,107,94634,1,4
256,192,94840,12,4,95875
95,129,96289,5,2
95,129,96703,2,0,B|129:201|214:229,1,160,2|2
339,83,97530,6,4,B|381:76|429:91,1,80,4|0
435,105,97840,1,0
446,126,97944,1,8
405,213,98151,1,0
316,250,98358,2,0,B|287:278|270:314,1,80
173,316,98771,2,0,B|137:289|126:248,1,80,8|0
93,161,99185,5,0
93,161,99392,1,0
148,82,99599,2,0,B|185:104|223:106,1,80,8|0
247,107,99909,1,0
270,100,100013,2,0,B|314:118|332:152,2,80,0|0|8
405,235,100840,5,0
325,288,101047,1,0
318,192,101254,2,0,B|276:179|235:183,1,80,8|0
198,270,101668,2,0,B|129:225|112:137,1,160,0|8
164,58,102289,5,0
250,100,102496,2,0,B|291:117|331:106,1,80
422,89,102909,1,8
400,173,103116,2,0,B|365:250,1,80
283,197,103530,2,4,B|204:172,1,80,2|12
38,78,104151,5,4
79,164,104358,1,0
32,248,104565,2,0,B|61:281|100:290,1,80,8|0
193,271,104978,2,0,B|257:292|286:346,2,120,0|2|0
168,177,105806,6,0,B|193:140|227:124,1,80
250,121,106116,1,0
274,118,106220,2,0,B|318:106|342:74,1,80,8|0
420,22,106634,1,0
399,115,106840,1,0
444,199,107047,1,8
291,315,107461,5,0
291,315,107668,1,0
202,277,107875,1,8
202,277,108082,1,0
137,206,108289,2,0,B|76:227|43:277,2,120,0|2|0
207,140,109116,1,0
207,140,109220,1,0
207,140,109323,1,0
207,140,109530,2,0,B|249:121|265:88,1,80,8|0
395,48,109944,6,0,B|453:104,1,80
438,223,110358,2,0,B|380:167,1,80,8|0
289,137,110771,2,0,B|273:92|201:65|151:82,1,160,4|8
78,143,111392,1,0
78,143,111496,2,0,B|113:191|103:262,1,120
47,335,112013,1,8
142,347,112220,5,0
142,347,112323,1,0
142,347,112427,2,0,B|179:321|219:318,1,80,4|0
310,335,112840,1,8
383,273,113047,1,0
383,273,113151,2,0,B|351:214|363:153,1,120
391,65,113668,1,8
297,43,113875,6,0,B|263:74,1,40
228,98,114082,2,0,B|182:106|106:79|77:41,1,160,4|8
36,132,114703,2,0,B|5:161,2,40,0|0|0
92,210,115116,1,0
92,210,115323,1,8
184,184,115530,5,0
184,184,115634,1,0
184,184,115737,2,0,B|226:207|238:244,1,80
273,330,116151,2,0,B|309:306|349:304,1,80,8|0
371,308,116461,1,0
393,316,116565,2,0,B|438:319|474:293,2,80,0|0|12
303,146,117392,5,0
208,130,117599,2,0,B|161:118|142:80,2,80,0|8|0
244,219,118220,2,0,B|217:272|145:278,2,120,0|2|0
305,145,119047,1,0
384,92,119254,6,0,B|472:92,2,80,0|8|0
292,60,119875,2,0,B|232:48|172:72,2,120,0|2|0
292,60,120703,1,0
300,156,120909,1,0
308,252,121116,2,0,B|284:292|248:304,1,80,8|0
152,288,121530,2,0,B|108:288,2,40
152,288,121944,2,0,B|152:208,1,80,8|0
152,112,122358,1,0
240,76,122565,6,0,B|272:108|320:104,2,80,0|8|0
152,112,123185,2,0,B|120:144|84:160,1,80
64,168,123496,1,0
40,176,123599,1,8
24,272,123806,2,0,B|52:308|96:312,1,80,0|4
172,260,124220,5,0
172,260,124427,2,0,B|248:240,1,80,8|0
344,240,124840,2,0,B|360:300|404:344,2,120,0|2|0
356,144,125668,6,0,B|392:116,2,40,2|0|0
260,140,126082,2,0,B|216:128|188:96,1,80,8|0
96,104,126496,1,0
96,104,126599,1,0
96,104,126703,1,0
48,188,126909,1,8
48,188,127013,1,0
48,188,127116,1,0
128,244,127323,1,4
128,244,127944,5,0
128,244,128047,1,0
128,244,128151,2,0,B|188:304,1,80,2|0
280,304,128565,2,0,B|332:236,1,80,8|0
256,192,128978,12,2,131875
144,200,132289,6,0,B|160:240|204:256,1,80,4|0
224,256,132599,1,0
248,256,132703,1,8
336,216,132909,1,0
376,128,133116,2,0,B|288:116|252:24,1,160,0|8
160,36,133737,1,0
96,108,133944,2,0,B|8:188,2,120,0|2|0
176,164,134771,6,0,B|128:280,2,120,0|2|0
236,88,135599,1,4
236,88,135806,1,0
324,124,136013,2,0,B|336:168|376:192,1,80,8|0
348,280,136427,2,0,B|304:300|264:284,1,80
184,248,136840,1,8
184,248,137047,1,0
184,248,137254,6,0,B|144:216|128:184|140:144|184:120,1,160,0|8
280,112,137875,2,0,B|304:72,2,40
332,192,138289,2,0,B|376:208,2,40,0|0|8
236,196,138703,1,0
144,168,138909,2,0,B|104:152|84:112,1,80
12,52,139323,1,8
84,116,139530,1,0
44,204,139737,2,0,B|44:248|80:276,1,80
172,292,140151,2,0,B|256:292,1,80,8|0
328,232,140565,5,0
328,232,140668,1,0
376,148,140875,1,0
376,148,140978,1,8
316,72,141185,1,0
316,72,141392,2,0,B|280:96|240:92,1,80
144,76,141806,2,0,B|108:104|104:144,1,80,8|0
164,216,142220,6,0,B|144:276|88:312,2,120,0|2|0
228,144,143047,2,0,B|304:112|392:160,1,160,0|8
228,144,143875,2,0,B|92:144,2,120,0|2|0
308,88,144703,2,0,B|348:76|396:92,1,80
448,164,145116,2,0,B|432:204|440:248,1,80,8|0
360,296,145530,5,4
360,296,145737,1,0
360,296,145944,2,0,B|276:296,1,80,8|0
168,248,146358,1,2
168,248,146565,1,0
168,248,146771,2,0,B|116:180,1,80,8|0
168,76,147185,5,2
168,76,147392,1,0
168,76,147599,2,0,B|220:144,1,80,8|0
328,184,148013,2,0,B|416:176,1,80,2|0
320,260,148427,2,0,B|232:268,1,80,8|0
256,192,148840,12,4,151116
