osu file format v12

[General]
AudioFilename: 01 excuse me, i am sorry.mp3
AudioLeadIn: 0
PreviewTime: 87190
Countdown: 0
SampleSet: Soft
StackLeniency: 0.7
Mode: 0
LetterboxInBreaks: 1

[Editor]
DistanceSpacing: 0.8
BeatDivisor: 4
GridSize: 8

[Metadata]
Title:Excuse Me, I am Sorry
TitleUnicode:
Artist:Hiroki Takahashi
ArtistUnicode:
Creator:LuPiiTa
Version:Hard
Source:Hetalia: Axis Powers
Tags:APH Mint_Bunny
BeatmapID:96701
BeatmapSetID:29102

[Difficulty]
HPDrainRate:5
CircleSize:4
OverallDifficulty:6
ApproachRate:6
SliderMultiplier:1.30000000596046
SliderTickRate:1

[Events]
//Background and Video events
0,0,"452097China.png",0,0
//Break Periods
2,101326,113693
//Storyboard Layer 0 (Background)
//Storyboard Layer 1 (Fail)
//Storyboard Layer 2 (Pass)
//Storyboard Layer 3 (Foreground)
//Storyboard Sound Samples
//Background Colour Transformations
3,100,163,162,255

[TimingPoints]
29636.7858601079,425.532345621238,4,2,1,65,1,0
43253,-200,4,2,2,65,0,0
56866,-100,4,2,1,65,0,0
70913,-100,4,2,2,65,0,0
87509,-100,4,2,2,65,0,1
101126,-100,4,2,1,65,0,0
114743,-100,4,2,2,65,0,0
145381,-100,4,2,1,65,0,1
158998,-100,4,2,2,65,0,0
190488,-100,4,2,2,65,0,1
199849,-100,4,2,1,65,0,1
202190,-100,4,2,1,65,0,0
203892,-100,4,2,2,65,0,0
204105,-100,4,2,2,65,0,1
213679,-100,4,2,1,65,0,1
217296,-100,4,2,1,65,0,0

[Colours]
Combo1 : 216,216,216
Combo2 : 179,0,0
Combo3 : 168,168,0
Combo4 : 255,155,205

[HitObjects]
128,48,29636,2,0,B|128:184,1,130.000000596046,6|0,0:0|0:0,0:0:0:0:
80,232,30275,1,0,0:0:0:0:
130,284,30487,1,0,0:0:0:0:
178,230,30700,1,8,0:0:0:0:
250,230,30913,6,0,B|338:230,2,65.000000298023,0|8|8,0:0|0:0|0:0,0:0:0:0:
200,94,31764,1,0,0:0:0:0:
200,94,31977,2,0,B|336:94,1,130.000000596046,0|8,0:0|0:0,0:0:0:0:
402,96,32615,2,0,B|466:96,2,65.000000298023,0|8|8,0:0|0:0|0:0,0:0:0:0:
450,232,33466,5,2,0:0:0:0:
404,288,33679,1,0,0:0:0:0:
333,287,33892,1,0,0:0:0:0:
288,232,34104,1,8,0:0:0:0:
288,160,34317,2,0,B|288:88,1,65.000000298023,0|8,0:0|0:0,0:0:0:0:
344,48,34743,2,0,B|408:8|472:48,2,130.000000596046,8|0|0,0:0|0:0|0:0,0:0:0:0:
280,88,35807,2,0,B|216:136|152:88,1,130.000000596046,8|8,0:0|0:0,0:0:0:0:
88,120,36445,5,2,0:0:0:0:
88,120,36658,2,0,B|88:208,1,65.000000298023
160,208,37083,2,0,B|160:72,1,130.000000596046,2|8,0:0|0:0,0:0:0:0:
232,72,37721,1,0,0:0:0:0:
304,72,37934,1,8,0:0:0:0:
376,72,38147,5,8,0:0:0:0:
448,72,38360,1,0,0:0:0:0:
448,144,38572,1,0,0:0:0:0:
448,216,38785,2,0,B|448:360,1,130.000000596046,2|8,0:0|0:0,0:0:0:0:
376,344,39424,1,0,0:0:0:0:
304,344,39636,1,8,0:0:0:0:
232,344,39849,1,8,0:0:0:0:
328,248,40275,6,0,B|368:192,1,65.000000298023,2|0,0:0|0:0,0:0:0:0:
296,176,40700,2,0,B|312:112,1,65.000000298023,0|8,0:0|0:0,0:0:0:0:
240,128,41126,2,0,B|208:72,1,65.000000298023,0|8,0:0|0:0,0:0:0:0:
136,80,41551,2,0,B|64:96|64:176,2,130.000000596046,8|0|0,0:0|0:0|0:0,0:0:0:0:
168,144,42615,2,0,B|168:288,1,130.000000596046,8|8,0:0|0:0,0:0:0:0:
240,272,43253,6,0,B|272:248|336:296|368:272,1,130.000000596046,4|2,0:0|0:0,0:0:0:0:
360,200,44530,1,0,0:0:0:0:
304,152,44955,6,0,B|272:176|208:128|176:152,1,130.000000596046,4|2,0:0|0:0,0:0:0:0:
128,104,46232,1,0,0:0:0:0:
72,152,46658,6,0,B|48:192|96:248|72:280,1,130.000000596046,4|2,0:0|0:0,0:0:0:0:
137,252,47934,5,0,0:0:0:0:
166,274,48147,1,0,0:0:0:0:
194,252,48360,1,2,0:0:0:0:
217,184,48785,2,0,B|217:48,1,130.000000596046
288,52,50062,6,0,B|288:196,1,130.000000596046,4|2,0:0|0:0,0:0:0:0:
305,250,51338,2,0,B|377:274|425:210,2,130.000000596046,0|2|0,0:0|0:0|0:0,0:0:0:0:
255,198,53466,2,0,B|191:158|119:198,1,130.000000596046,2|0,0:0|0:0,0:0:0:0:
73,149,54743,5,0,0:0:0:0:
112,88,55168,1,2,0:0:0:0:
152,88,55381,1,0,0:0:0:0:
192,88,55594,1,0,0:0:0:0:
264,88,56019,1,2,0:0:0:0:
304,88,56232,1,0,0:0:0:0:
344,88,56445,1,0,0:0:0:0:
396,223,56870,6,0,B|260:223,1,130.000000596046,4|0,0:0|0:0,0:0:0:0:
196,240,57509,2,0,B|140:288,1,65.000000298023
80,240,57934,1,10,0:0:0:0:
40,168,58147,2,0,B|104:128,1,65.000000298023,0|8,0:0|0:0,0:0:0:0:
144,80,58572,6,0,B|176:56|240:104|272:80,1,130.000000596046,4|2,0:0|0:0,0:0:0:0:
344,84,59211,1,0,0:0:0:0:
416,87,59424,2,0,B|416:167,1,65.000000298023,0|10,0:0|0:0,0:0:0:0:
416,224,59849,1,0,0:0:0:0:
416,296,60062,2,8,B|416:384,1,65.000000298023,8|10,0:0|0:0,0:0:0:0:
282,304,60700,6,0,B|210:304,1,65.000000298023
237,234,61126,2,0,B|317:234,1,65.000000298023,0|10,0:0|0:0,0:0:0:0:
308,160,61551,1,0,0:0:0:0:
236,159,61764,2,8,B|148:159,1,65.000000298023,8|10,0:0|0:0,0:0:0:0:
98,159,62190,1,0,0:0:0:0:
125,86,62402,6,0,B|157:22|253:46,1,130.000000596046
309,48,63041,1,10,0:0:0:0:
309,48,63253,2,0,B|309:136,1,65.000000298023,0|8,0:0|0:0,0:0:0:0:
308,187,63679,1,10,0:0:0:0:
412,88,64104,6,0,B|484:112|484:192,1,130.000000596046
407,170,64743,1,10,0:0:0:0:
408,248,64955,2,0,B|408:328,1,65.000000298023,0|8,0:0|0:0,0:0:0:0:
408,312,65381,1,10,0:0:0:0:
273,247,65807,6,0,B|137:247,1,130.000000596046
71,244,66445,1,10,0:0:0:0:
57,319,66658,2,0,B|137:319,1,60.000000298023,0|8,0:0|0:0,0:0:0:0:
202,319,67083,2,0,B|274:319|298:231,1,130.000000596046,10|0,0:0|0:0,0:0:0:0:
360,202,67721,5,0,0:0:0:0:
400,136,67934,1,0,0:0:0:0:
360,72,68147,1,10,0:0:0:0:
288,40,68360,1,0,0:0:0:0:
216,72,68572,1,8,0:0:0:0:
176,136,68785,1,10,0:0:0:0:
216,200,68998,6,0,B|288:200,1,65.000000298023
304,264,69424,1,0,0:0:0:0:
376,264,69636,2,0,B|448:264,4,65.000000298023,0|10|0|10|4,0:0|0:0|0:0|0:0|0:0,0:0:0:0:
400,120,70913,6,0,B|320:120,1,65.000000298023,2|0,0:0|0:0,0:0:0:0:
264,120,71338,1,0,0:0:0:0:
264,120,71551,2,0,B|192:120,1,65.000000298023,0|2,0:0|0:0,0:0:0:0:
128,120,71977,1,0,0:0:0:0:
112,192,72190,6,0,B|88:232|128:248,1,65.000000298023,0|0,0:0|0:0,0:0:0:0:
200,240,72615,2,0,B|240:240|240:296,1,65.000000298023,2|0,0:0|0:0,0:0:0:0:
312,304,73041,2,0,B|344:320|368:280,1,65.000000298023
368,208,73466,2,0,B|336:176|376:144,1,65.000000298023,2|0,0:0|0:0,0:0:0:0:
336,88,73892,6,0,B|272:88,1,65.000000298023
208,120,74317,1,2,0:0:0:0:
256,176,74530,2,0,B|320:176,1,65.000000298023,0|0,0:0|0:0,0:0:0:0:
392,176,74955,1,0,0:0:0:0:
384,248,75168,2,0,B|304:248,1,65.000000298023,2|0,0:0|0:0,0:0:0:0:
248,248,75594,1,0,0:0:0:0:
176,248,75807,2,0,B|104:248,2,65.000000298023,0|2|0,0:0|0:0|0:0,0:0:0:0:
176,176,76445,1,0,0:0:0:0:
248,176,76658,2,0,B|320:176,1,65.000000298023,0|2,0:0|0:0,0:0:0:0:
384,176,77083,6,0,B|456:176,2,65.000000298023,0|0|0,0:0|0:0|0:0,0:0:0:0:
384,96,77721,2,0,B|384:24,2,65.000000298023,2|0|0,0:0|0:0|0:0,0:0:0:0:
312,96,78360,1,0,0:0:0:0:
248,128,78573,1,2,0:0:0:0:
264,200,78785,1,0,0:0:0:0:
328,240,78998,2,0,B|408:240,1,65.000000298023,0|0,0:0|0:0,0:0:0:0:
432,304,79424,2,0,B|360:304,1,65.000000298023,2|0,0:0|0:0,0:0:0:0:
296,304,79849,2,0,B|160:304,1,130.000000596046,0|2,0:0|0:0,0:0:0:0:
96,304,80487,1,0,0:0:0:0:
96,304,80700,1,0,0:0:0:0:
128,152,81126,6,0,B|272:152,1,130.000000596046,0|2,0:0|0:0,0:0:0:0:
328,152,81764,1,0,0:0:0:0:
328,152,81977,1,0,0:0:0:0:
456,232,82402,2,0,B|384:232,1,65.000000298023,2|0,0:0|0:0,0:0:0:0:
320,232,82828,1,0,0:0:0:0:
192,304,83253,2,0,B|280:304,1,65.000000298023,2|0,0:0|0:0,0:0:0:0:
328,304,83679,1,0,0:0:0:0:
408,184,84104,6,0,B|408:104,1,65.000000298023,8|8,0:0|0:0,0:0:0:0:
272,120,84743,1,8,0:0:0:0:
184,296,85381,2,0,B|256:296,1,65.000000298023,8|8,0:0|0:0,0:0:0:0:
352,200,86019,1,8,0:0:0:0:
176,72,86658,1,8,0:0:0:0:
176,72,87083,1,8,0:0:0:0:
104,72,87296,6,0,B|104:160,1,65.000000298023,0|4,0:0|0:0,0:0:0:0:
104,208,87721,1,10,0:0:0:0:
104,280,87934,2,0,B|160:336|232:280,2,130.000000596046,8|2|8,0:0|0:0|0:0,0:0:0:0:
192,152,89211,2,0,B|200:72|296:80,2,130.000000596046,2|8|2,0:0|0:0|0:0,0:0:0:0:
328,200,90487,5,10,0:0:0:0:
328,200,90700,1,0,0:0:0:0:
400,176,90913,2,0,B|472:144|424:56,2,130.000000596046,2|10|2,0:0|0:0|0:0,0:0:0:0:
400,248,91977,2,0,B|400:328,1,65.000000298023,0|8,0:0|0:0,0:0:0:0:
320,312,92402,5,0,0:0:0:0:
248,288,92615,2,0,B|176:248,1,65.000000298023,0|10,0:0|0:0,0:0:0:0:
264,216,93041,2,0,B|232:144,1,65.000000298023,8|10,0:0|0:0,0:0:0:0:
328,184,93466,2,0,B|344:112,1,65.000000298023,0|10,0:0|0:0,0:0:0:0:
376,240,93892,2,0,B|432:184,1,65.000000298023,8|2,0:0|0:0,0:0:0:0:
472,136,94317,6,0,B|464:64|384:56,1,130.000000596046,4|10,0:0|0:0,0:0:0:0:
312,56,94956,1,2,0:0:0:0:
240,56,95168,2,0,B|152:56|144:136,1,130.000000596046,2|8,0:0|0:0,0:0:0:0:
160,200,95807,5,2,0:0:0:0:
160,200,96019,1,0,0:0:0:0:
232,200,96232,2,0,B|320:200,1,65.000000298023,2|8,0:0|0:0,0:0:0:0:
368,200,96658,2,0,B|368:288,2,65.000000298023,2|0|2,0:0|0:0|0:0,0:0:0:0:
416,144,97296,6,0,B|464:88,1,65.000000298023,10|0,0:0|0:0,0:0:0:0:
352,120,97721,2,0,B|360:48,1,65.000000298023,12|0,0:0|0:0,0:0:0:0:
280,120,98147,2,0,B|264:48,1,65.000000298023,2|0,0:0|0:0,0:0:0:0:
216,144,98573,2,0,B|176:88,1,65.000000298023,12|0,0:0|0:0,0:0:0:0:
96,112,98998,1,2,0:0:0:0:
40,168,99211,1,10,0:0:0:0:
104,208,99424,6,0,B|192:208,1,65.000000298023,0|2,0:0|0:0,0:0:0:0:
232,240,99849,1,2,0:0:0:0:
304,344,100062,1,2,0:0:0:0:
376,240,100275,1,2,0:0:0:0:
304,88,100700,1,10,0:0:0:0:
304,88,101126,1,12,0:0:0:0:
416,160,114743,6,0,B|416:80,1,65.000000298023,4|2,0:0|0:0,0:0:0:0:
336,96,115168,2,0,B|336:176,1,65.000000298023,8|2,0:0|0:0,0:0:0:0:
256,160,115594,2,0,B|256:80,1,65.000000298023,2|0,0:0|0:0,0:0:0:0:
176,96,116019,2,0,B|96:96,1,65.000000298023,10|2,0:0|0:0,0:0:0:0:
64,160,116445,6,0,B|48:200|88:224,1,65.000000298023,4|2,0:0|0:0,0:0:0:0:
152,248,116870,1,8,0:0:0:0:
232,256,117083,2,0,B|280:248|296:304,1,65.000000298023,2|2,0:0|0:0,0:0:0:0:
368,288,117509,2,0,B|408:304|432:256,1,65.000000298023,2|8,0:0|0:0,0:0:0:0:
440,192,117934,5,0,0:0:0:0:
440,192,118147,2,0,B|368:192,1,65.000000298023,4|2,0:0|0:0,0:0:0:0:
368,112,118573,1,8,0:0:0:0:
304,64,118785,1,2,0:0:0:0:
232,96,118998,1,0,0:0:0:0:
208,176,119211,1,2,0:0:0:0:
256,240,119424,1,10,0:0:0:0:
336,240,119636,1,2,0:0:0:0:
416,240,119849,6,0,B|488:240|504:328,2,130.000000596046,2|10|2,0:0|0:0|0:0,0:0:0:0:
416,160,120913,2,0,B|416:80,1,65.000000298023,2|10,0:0|0:0,0:0:0:0:
344,96,121339,1,0,0:0:0:0:
264,96,121551,6,0,B|192:96|160:176,1,130.000000596046,4|10,0:0|0:0,0:0:0:0:
224,208,122190,1,2,0:0:0:0:
296,240,122402,1,2,0:0:0:0:
288,320,122615,1,2,0:0:0:0:
208,336,122828,1,10,0:0:0:0:
128,312,123041,1,0,0:0:0:0:
128,312,123253,6,0,B|168:240|96:192,1,130.000000596046,4|10,0:0|0:0,0:0:0:0:
40,144,123892,1,0,0:0:0:0:
96,88,124104,2,0,B|144:24|224:64,1,130.000000596046,2|10,0:0|0:0,0:0:0:0:
280,104,124743,5,0,0:0:0:0:
360,104,124956,1,4,0:0:0:0:
440,112,125168,2,0,B|408:184,1,65.000000298023,2|10,0:0|0:0,0:0:0:0:
336,192,125594,2,0,B|264:192,1,65.000000298023,2|0,0:0|0:0,0:0:0:0:
256,272,126019,2,0,B|320:312,2,65.000000298023,2|10|2,0:0|0:0|0:0,0:0:0:0:
184,232,126658,1,2,0:0:0:0:
248,176,126870,6,0,B|304:128,1,65.000000298023,2|10,0:0|0:0,0:0:0:0:
240,80,127296,1,0,0:0:0:0:
160,80,127509,2,0,B|80:80,1,65.000000298023,2|0,0:0|0:0,0:0:0:0:
40,136,127934,1,10,0:0:0:0:
32,224,128147,6,0,B|16:264|64:280,1,65.000000298023,0|12,0:0|0:0,0:0:0:0:
136,280,128573,1,2,0:0:0:0:
216,280,128785,2,0,B|296:280,2,65.000000298023,10|0|10,0:0|0:0|0:0,0:0:0:0:
216,200,129424,1,2,0:0:0:0:
216,120,129636,2,0,B|216:48,2,65.000000298023,10|0|10,0:0|0:0|0:0,0:0:0:0:
296,120,130275,6,0,B|328:96|328:144|376:104,1,65.000000298023,0|10,0:0|0:0,0:0:0:0:
424,160,130700,1,0,0:0:0:0:
368,216,130913,2,0,B|344:192|328:240|296:200,1,65.000000298023,10|0,0:0|0:0,0:0:0:0:
232,176,131339,2,8,B|152:192|152:272,1,130.000000596046,10|8,0:0|0:0,0:0:0:0:
208,320,131977,5,0,0:0:0:0:
288,320,132190,2,8,B|368:304|368:224,1,130.000000596046,10|8,0:0|0:0,0:0:0:0:
376,160,132828,1,0,0:0:0:0:
352,88,133041,2,8,B|288:56|216:96,1,130.000000596046,10|8,0:0|0:0,0:0:0:0:
160,132,133679,1,2,0:0:0:0:
160,208,133892,6,0,B|160:272,2,65.000000298023,8|2|8,0:0|0:0|0:0,0:0:0:0:
240,208,134530,1,2,0:0:0:0:
304,256,134743,1,10,0:0:0:0:
368,208,134956,1,2,0:0:0:0:
368,128,135168,5,8,0:0:0:0:
304,80,135381,1,0,0:0:0:0:
240,128,135594,1,10,0:0:0:0:
160,128,135807,2,0,B|80:128,1,65.000000298023,0|8,0:0|0:0,0:0:0:0:
64,200,136232,2,0,B|144:200,1,65.000000298023,2|8,0:0|0:0,0:0:0:0:
208,200,136658,2,0,B|288:200,1,65.000000298023,0|10,0:0|0:0,0:0:0:0:
352,200,137083,2,0,B|424:200,1,65.000000298023,0|10,0:0|0:0,0:0:0:0:
472,264,137509,5,0,0:0:0:0:
408,320,137722,2,0,B|360:264,1,65.000000298023,8|2,0:0|0:0,0:0:0:0:
288,256,138147,2,0,B|224:304,1,65.000000298023,8|2,0:0|0:0,0:0:0:0:
160,320,138573,2,0,B|120:256,1,65.000000298023,8|2,0:0|0:0,0:0:0:0:
104,184,138998,6,8,B|96:104|176:80,1,130.000000596046,10|8,0:0|0:0,0:0:0:0:
192,160,139636,1,2,0:0:0:0:
272,160,139849,2,0,B|272:232,1,65.000000298023,8|0,0:0|0:0,0:0:0:0:
336,272,140275,2,0,B|400:240,1,65.000000298023,10|0,0:0|0:0,0:0:0:0:
432,168,140700,2,0,B|432:96,1,65.000000298023,10|0,0:0|0:0,0:0:0:0:
360,64,141126,2,0,B|288:48,1,65.000000298023,8|0,0:0|0:0,0:0:0:0:
224,88,141551,2,0,B|168:120,1,65.000000298023,8|0,0:0|0:0,0:0:0:0:
96,160,141977,5,10,0:0:0:0:
96,240,142190,1,10,0:0:0:0:
248,192,142615,1,10,0:0:0:0:
448,312,143253,5,10,0:0:0:0:
448,232,143466,1,10,0:0:0:0:
296,272,143892,1,10,0:0:0:0:
416,72,144530,5,8,0:0:0:0:
256,72,144956,1,8,0:0:0:0:
384,168,145381,6,4,B|384:256,1,65.000000298023,10|0,0:0|0:0,0:0:0:0:
384,312,145807,1,10,0:0:0:0:
304,312,146019,2,0,B|240:312,1,65.000000298023,0|8,0:0|0:0,0:0:0:0:
160,312,146445,1,2,0:0:0:0:
80,312,146658,1,8,0:0:0:0:
80,232,146870,1,2,0:0:0:0:
80,152,147083,6,0,B|96:80|184:80,2,130.000000596046,8|8|8,0:0|0:0|0:0,0:0:0:0:
160,160,148147,1,2,0:0:0:0:
160,160,148360,1,8,0:0:0:0:
240,160,148573,1,0,0:0:0:0:
320,152,148785,6,0,B|320:200|360:200,1,65.000000298023,8|0,0:0|0:0,0:0:0:0:
432,192,149211,1,10,0:0:0:0:
472,264,149424,2,0,B|464:304|408:280,1,65.000000298023,0|8,0:0|0:0,0:0:0:0:
344,264,149849,1,0,0:0:0:0:
344,344,150062,1,10,0:0:0:0:
272,304,150275,1,0,0:0:0:0:
192,304,150487,5,10,0:0:0:0:
232,232,150700,1,0,0:0:0:0:
168,184,150913,2,0,B|128:128,1,65.000000298023,8|2,0:0|0:0,0:0:0:0:
232,136,151339,2,0,B|232:56,1,65.000000298023,8|2,0:0|0:0,0:0:0:0:
296,184,151764,2,0,B|328:120,1,65.000000298023,8|2,0:0|0:0,0:0:0:0:
352,56,152190,6,0,B|424:24|480:88,1,130.000000596046,12|8,0:0|0:0,0:0:0:0:
416,136,152828,1,2,0:0:0:0:
464,200,153041,1,8,0:0:0:0:
408,256,153253,1,0,0:0:0:0:
328,256,153466,2,0,B|240:256|256:160,1,130.000000596046,10|8,0:0|0:0,0:0:0:0:
200,112,154104,5,2,0:0:0:0:
120,128,154317,2,0,B|72:192|128:256,3,130.000000596046,8|10|8|14,0:0|0:0|0:0|0:0,0:0:0:0:
192,288,155807,1,0,0:0:0:0:
272,288,156019,1,0,0:0:0:0:
352,288,156232,2,0,B|424:288,1,65.000000298023,0|8,0:0|0:0,0:0:0:0:
464,192,156658,1,0,0:0:0:0:
368,144,156870,1,0,0:0:0:0:
272,192,157083,1,8,0:0:0:0:
256,192,157296,12,12,158573,0:0:0:0:
424,80,158998,6,0,B|288:80,1,130.000000596046,0|10,0:0|0:0,0:0:0:0:
136,128,159849,2,0,B|272:128,1,130.000000596046,0|8,0:0|0:0,0:0:0:0:
424,184,160700,2,0,B|288:184,1,130.000000596046,0|10,0:0|0:0,0:0:0:0:
136,240,161551,2,0,B|272:240,1,130.000000596046,0|8,0:0|0:0,0:0:0:0:
424,184,162402,6,0,B|424:112|360:80,1,130.000000596046,0|10,0:0|0:0,0:0:0:0:
192,128,163253,1,0,0:0:0:0:
192,208,163466,1,2,0:0:0:0:
192,288,163679,1,8,0:0:0:0:
352,304,164105,5,0,0:0:0:0:
352,304,164317,1,2,0:0:0:0:
352,304,164530,2,0,B|416:272|384:192,1,130.000000596046,8|0,0:0|0:0,0:0:0:0:
304,176,165168,1,2,0:0:0:0:
272,104,165381,2,0,B|320:48|400:64,2,130.000000596046,8|0|8,0:0|0:0|0:0,0:0:0:0:
184,240,166658,6,0,B|128:296|56:248,1,130.000000596046,2|8,0:0|0:0,0:0:0:0:
16,192,167296,1,0,0:0:0:0:
40,112,167509,2,0,B|80:56|168:80,1,130.000000596046,2|8,0:0|0:0,0:0:0:0:
224,120,168147,1,0,0:0:0:0:
288,168,168360,6,0,B|336:208|336:208|400:168,1,130.000000596046,2|8,0:0|0:0,0:0:0:0:
472,176,168998,1,0,0:0:0:0:
472,256,169211,2,0,B|472:328|472:328|400:328,1,130.000000596046,2|10,0:0|0:0,0:0:0:0:
336,328,169849,5,0,0:0:0:0:
256,328,170062,2,0,B|200:280|200:280|232:232,1,130.000000596046,0|8,0:0|0:0,0:0:0:0:
280,168,170700,1,0,0:0:0:0:
360,168,170913,2,0,B|424:168|424:168|424:88,1,130.000000596046,2|2,0:0|0:0,0:0:0:0:
352,64,171551,6,0,B|288:32|224:72,1,130.000000596046,2|0,0:0|0:0,0:0:0:0:
168,120,172190,1,10,0:0:0:0:
40,216,172615,6,0,B|40:296,1,65.000000298023,0|2,0:0|0:0,0:0:0:0:
120,296,173041,2,0,B|120:224,1,65.000000298023,8|2,0:0|0:0,0:0:0:0:
200,216,173466,2,0,B|200:296,1,65.000000298023,0|2,0:0|0:0,0:0:0:0:
280,296,173892,2,0,B|280:232,1,65.000000298023,8|2,0:0|0:0,0:0:0:0:
280,152,174317,2,0,B|304:88|384:88,1,130.000000596046,0|10,0:0|0:0,0:0:0:0:
416,160,174956,5,0,0:0:0:0:
416,240,175168,1,2,0:0:0:0:
344,200,175381,1,0,0:0:0:0:
264,200,175594,2,0,B|128:200,2,130.000000596046,10|2|10,0:0|0:0|0:0,0:0:0:0:
344,200,176658,1,2,0:0:0:0:
344,120,176870,1,0,0:0:0:0:
264,120,177083,1,2,0:0:0:0:
264,200,177296,6,0,B|264:336,2,130.000000596046,8|2|10,0:0|0:0|0:0,0:0:0:0:
184,200,178360,1,2,0:0:0:0:
104,200,178573,1,0,0:0:0:0:
104,120,178785,1,2,0:0:0:0:
184,120,178998,6,0,B|320:120,2,130.000000596046,8|0|8,0:0|0:0|0:0,0:0:0:0:
184,200,180062,1,2,0:0:0:0:
184,280,180275,1,2,0:0:0:0:
264,280,180488,1,2,0:0:0:0:
264,200,180700,6,0,B|264:64,2,130.000000596046,8|0|8,0:0|0:0|0:0,0:0:0:0:
344,200,181764,1,2,0:0:0:0:
424,200,181977,1,0,0:0:0:0:
424,280,182190,1,2,0:0:0:0:
344,280,182402,6,0,B|216:216,1,130.000000596046,8|0,0:0|0:0,0:0:0:0:
152,192,183041,1,2,0:0:0:0:
152,192,183253,1,8,0:0:0:0:
224,144,183466,2,0,B|336:56,1,130.000000596046
400,96,184105,1,10,0:0:0:0:
400,96,184317,1,0,0:0:0:0:
400,176,184530,6,0,B|400:312,1,130.000000596046,2|8,0:0|0:0,0:0:0:0:
256,208,185381,1,2,0:0:0:0:
128,304,185807,1,8,0:0:0:0:
96,144,186232,5,10,0:0:0:0:
96,144,186445,1,10,0:0:0:0:
344,144,187083,1,10,0:0:0:0:
344,144,187296,1,10,0:0:0:0:
225,274,187722,1,10,0:0:0:0:
400,96,188360,6,10,B|488:96,1,65.000000298023
296,96,188998,1,10,0:0:0:0:
88,216,189636,2,0,B|96:200|96:200|104:216|104:216|112:200|112:200|120:216|120:216|128:200|128:200|136:216|136:216|144:200|144:200|152:216,1,130.000000596046,0|0,0:0|0:0,0:0:0:0:
224,200,190275,1,0,0:0:0:0:
312,208,190488,6,0,B|392:208|432:280,1,130.000000596046,6|8,0:0|0:0,0:0:0:0:
464,188,191126,1,2,0:0:0:0:
488,112,191339,2,0,B|448:56|360:56,1,130.000000596046,0|10,0:0|0:0,0:0:0:0:
288,48,191977,1,2,0:0:0:0:
200,64,192190,2,0,B|152:120|168:192,2,130.000000596046,0|8|0,0:0|0:0|0:0,0:0:0:0:
256,120,193253,1,2,0:0:0:0:
256,120,193466,1,8,0:0:0:0:
336,120,193679,6,0,B|336:208,1,65.000000298023,2|8,0:0|0:0,0:0:0:0:
336,264,194105,1,0,0:0:0:0:
272,312,194317,2,0,B|200:312,1,65.000000298023,10|0,0:0|0:0,0:0:0:0:
128,296,194743,1,2,0:0:0:0:
80,232,194956,1,2,0:0:0:0:
128,168,195168,1,8,0:0:0:0:
208,160,195381,6,0,B|192:88,1,65.000000298023,0|0,0:0|0:0,0:0:0:0:
272,160,195807,2,0,B|288:88,1,65.000000298023,8|8,0:0|0:0,0:0:0:0:
320,208,196232,2,0,B|376:160,1,65.000000298023,8|0,0:0|0:0,0:0:0:0:
320,272,196658,2,2,B|384:296,1,65.000000298023,8|10,0:0|0:0,0:0:0:0:
456,312,197083,5,0,0:0:0:0:
456,312,197296,2,0,B|480:248|440:184,1,130.000000596046,4|10,0:0|0:0,0:0:0:0:
368,160,197934,1,2,0:0:0:0:
320,104,198147,2,0,B|256:80|192:104,1,130.000000596046,0|10,0:0|0:0,0:0:0:0:
224,176,198785,6,0,B|264:208|240:256,1,65.000000298023,0|2,0:0|0:0,0:0:0:0:
168,248,199211,2,0,B|144:280|176:328,1,65.000000298023,0|10,0:0|0:0,0:0:0:0:
240,336,199636,2,0,B|280:352|320:320,1,65.000000298023,0|0,0:0|0:0,0:0:0:0:
368,288,200062,5,0,0:0:0:0:
424,232,200275,1,8,0:0:0:0:
368,176,200488,1,0,0:0:0:0:
320,112,200700,2,0,B|248:112,1,65.000000298023,8|0,0:0|0:0,0:0:0:0:
192,160,201126,1,0,0:0:0:0:
240,224,201339,2,0,B|312:224,1,65.000000298023,0|8,0:0|0:0,0:0:0:0:
312,304,201764,1,0,0:0:0:0:
232,312,201977,1,0,0:0:0:0:
152,304,202190,1,2,0:0:0:0:
80,264,202402,1,0,0:0:0:0:
56,176,202615,5,8,0:0:0:0:
88,104,202828,1,8,0:0:0:0:
160,64,203041,1,8,0:0:0:0:
232,96,203253,1,8,0:0:0:0:
232,256,203679,1,12,0:0:0:0:
312,256,203892,6,0,B|312:176,1,65.000000298023,2|12,0:0|0:0,0:0:0:0:
312,112,204317,1,10,0:0:0:0:
392,112,204530,2,0,B|472:112|472:208,2,130.000000596046,10|8|10,0:0|0:0|0:0,0:0:0:0:
400,192,205594,2,0,B|400:280,1,65.000000298023,0|10,0:0|0:0,0:0:0:0:
320,248,206019,2,0,B|280:184,1,65.000000298023,0|10,0:0|0:0,0:0:0:0:
208,196,206445,2,0,B|160:244,1,65.000000298023,0|8,0:0|0:0,0:0:0:0:
112,304,206871,1,2,0:0:0:0:
192,304,207083,1,10,0:0:0:0:
272,304,207296,6,0,B|336:304,1,65.000000298023,2|12,0:0|0:0,0:0:0:0:
416,296,207722,1,2,0:0:0:0:
416,296,207934,2,8,B|464:240|416:168,2,130.000000596046,8|10|8,0:0|0:0|0:0,0:0:0:0:
352,248,208998,6,0,B|296:208,1,65.000000298023,0|4,0:0|0:0,0:0:0:0:
240,152,209424,2,0,B|288:96,1,65.000000298023,0|12,0:0|0:0,0:0:0:0:
360,96,209849,2,0,B|440:96,1,65.000000298023,0|4,0:0|0:0,0:0:0:0:
480,152,210275,2,0,B|440:208,1,65.000000298023,0|6,0:0|0:0,0:0:0:0:
392,272,210700,1,0,0:0:0:0:
392,272,210913,6,0,B|328:328|272:272,1,130.000000596046,4|10,0:0|0:0,0:0:0:0:
216,224,211551,1,2,0:0:0:0:
168,160,211764,2,0,B|112:112|40:160,1,130.000000596046,8|10,0:0|0:0,0:0:0:0:
40,232,212402,5,10,0:0:0:0:
112,272,212615,2,0,B|112:344,1,65.000000298023,8|2,0:0|0:0,0:0:0:0:
192,336,213041,2,0,B|192:264,1,65.000000298023,10|2,0:0|0:0,0:0:0:0:
192,192,213466,1,8,0:0:0:0:
192,112,213679,5,2,0:0:0:0:
192,112,213892,2,0,B|272:112,1,65.000000298023,8|0,0:0|0:0,0:0:0:0:
312,168,214317,1,8,0:0:0:0:
392,168,214530,2,0,B|392:240,1,65.000000298023,0|0,0:0|0:0,0:0:0:0:
392,312,214956,1,0,0:0:0:0:
312,328,215168,1,8,0:0:0:0:
248,280,215381,1,0,0:0:0:0:
272,200,215594,1,0,0:0:0:0:
352,192,215807,1,2,0:0:0:0:
256,192,216019,12,12,217296,0:0:0:0:
