osu file format v12

[General]
AudioFilename: 01 excuse me, i am sorry.mp3
AudioLeadIn: 0
PreviewTime: 87190
Countdown: 0
SampleSet: Soft
StackLeniency: 0.7
Mode: 0
LetterboxInBreaks: 1

[Editor]
DistanceSpacing: 0.8
BeatDivisor: 4
GridSize: 8

[Metadata]
Title:Excuse Me, I am Sorry
TitleUnicode:
Artist:Hiroki Takahashi
ArtistUnicode:
Creator:LuPiiTa
Version:Easy
Source:Hetalia: Axis Powers
Tags:APH Mint_Bunny
BeatmapID:119712
BeatmapSetID:29102

[Difficulty]
HPDrainRate:2
CircleSize:3
OverallDifficulty:1
ApproachRate:2
SliderMultiplier:0.80000000596046
SliderTickRate:1

[Events]
//Background and Video events
0,0,"452097China.png",0,0
//Break Periods
2,101326,113183
2,186432,188928
//Storyboard Layer 0 (Background)
//Storyboard Layer 1 (Fail)
//Storyboard Layer 2 (Pass)
//Storyboard Layer 3 (Foreground)
//Storyboard Sound Samples
//Background Colour Transformations
3,100,163,162,255

[TimingPoints]
29636.7858601079,425.532345621238,4,2,1,65,1,0
36870,-100,4,2,1,5,0,0
37509,-100,4,2,1,65,0,0
38572,-100,4,2,1,5,0,0
39211,-100,4,2,1,65,0,0
43253,-100,4,2,2,65,0,0
56870,-100,4,2,1,65,0,0
62828,-100,4,2,1,5,0,0
63041,-100,4,2,1,65,0,0
70487,-100,4,2,2,65,0,0
87509,-100,4,2,2,65,0,1
101126,-100,4,1,1,65,0,0
114743,-100,4,2,1,65,0,0
115168,-100,4,2,2,65,0,0
145381,-100,4,2,1,65,0,1
158998,-100,4,2,2,65,0,0
162828,-100,4,2,1,65,0,0
164105,-100,4,2,2,65,0,0
166232,-100,4,2,1,65,0,0
167509,-100,4,2,2,65,0,0
169636,-100,4,2,1,65,0,0
174317,-100,4,2,2,65,0,0
190488,-100,4,2,2,65,0,1
202190,-100,4,2,2,65,0,0
204105,-100,4,2,2,65,0,1
213679,-100,4,2,2,65,0,1
217296,-100,4,2,2,65,0,0

[Colours]
Combo1 : 216,216,216
Combo2 : 179,0,0
Combo3 : 168,168,0
Combo4 : 255,155,205

[HitObjects]
104,112,29636,1,12,0:0:0:0:
256,112,30700,2,0,B|328:104|376:160,1,120.000000894069,8|12,0:0|0:0,0:0:0:0:
248,240,32402,2,0,B|128:240,1,120.000000894069,8|12,0:0|0:0,0:0:0:0:
232,128,34104,5,8,0:0:0:0:
232,128,34743,1,12,0:0:0:0:
368,200,35807,1,8,0:0:0:0:
400,288,36445,6,0,B|304:328|200:288,1,200.000001490115,12|8,0:0|0:0,0:0:0:0:
264,216,38147,2,0,B|168:176|64:216,1,200.000001490115,12|8,0:0|0:0,0:0:0:0:
56,120,39849,6,0,B|96:104|144:120,1,80.000000596046,12|0,0:0|0:0,0:0:0:0:
216,160,40913,2,0,B|280:184|336:160,1,120.000000894069,8|12,0:0|0:0,0:0:0:0:
456,64,42615,2,8,B|456:200,1,120.000000894069,8|12,0:0|0:0,0:0:0:0:
384,288,44104,6,0,B|352:208|256:200,1,160.000001192092,2|4,0:0|0:0,0:0:0:0:
136,176,45807,2,0,B|168:96|264:88,1,160.000001192092,2|4,0:0|0:0,0:0:0:0:
384,88,47509,5,2,0:0:0:0:
312,192,48360,1,0,0:0:0:0:
384,288,49211,1,2,0:0:0:0:
264,296,50062,6,0,B|248:248|200:264,2,80.000000596046,4|0|2,0:0|0:0|0:0,0:0:0:0:
248,168,51764,2,0,B|264:216|312:200,2,80.000000596046,4|0|2,0:0|0:0|0:0,0:0:0:0:
160,80,53466,2,0,B|240:56|320:80,1,160.000001192092,4|2,0:0|0:0,0:0:0:0:
384,184,55168,2,0,B|448:248,2,80.000000596046,2|0|2,0:0|0:0|0:0,0:0:0:0:
288,264,56870,5,12,0:0:0:0:
136,264,57934,1,8,0:0:0:0:
200,200,58572,1,12,0:0:0:0:
296,80,59636,6,12,B|232:80|232:80|168:112,1,120.000000894069,8|12,0:0|0:0,0:0:0:0:
192,264,61338,2,12,B|256:264|256:264|320:232,1,120.000000894069,8|12,0:0|0:0,0:0:0:0:
344,184,62402,2,0,B|472:184,1,120.000000894069,0|8,0:0|0:0,0:0:0:0:
432,272,63679,6,0,B|336:272,2,80.000000596046,12|0|0,0:0|0:0|0:0,0:0:0:0:
344,184,65381,1,12,0:0:0:0:
224,80,66445,2,8,B|144:80|128:144,1,120.000000894069,8|12,0:0|0:0,0:0:0:0:
208,272,68147,6,8,B|288:272|304:208,1,120.000000894069,8|12,0:0|0:0,0:0:0:0:
304,152,69211,2,0,B|304:72,3,80.000000596046,0|0|0|12,0:0|0:0|0:0|0:0,0:0:0:0:
360,184,71338,6,0,B|464:192|480:288,1,160.000001192092,2|4,0:0|0:0,0:0:0:0:
352,280,73041,2,0,B|248:272|232:176,1,160.000001192092,2|4,0:0|0:0,0:0:0:0:
192,72,74743,2,0,B|88:80|72:176,2,160.000001192092,2|4|2,0:0|0:0|0:0,0:0:0:0:
320,72,77296,6,0,B|320:136|320:136|376:136|376:136|376:176,1,160.000001192092,4|2,0:0|0:0,0:0:0:0:
248,152,78998,2,0,B|248:216|248:216|192:216|192:216|192:256,1,160.000001192092,4|2,0:0|0:0,0:0:0:0:
72,256,80700,1,4,0:0:0:0:
128,152,81551,2,0,B|168:72|256:48|352:64|392:168,1,320.000002384184,2|2,0:0|0:0,0:0:0:0:
336,264,84104,6,10,B|200:264,1,120.000000894069
168,184,85381,2,10,B|304:184,1,120.000000894069
384,184,86658,2,8,B|472:184,2,80.000000596046,8|8|12,0:0|0:0|0:0,0:0:0:0:
320,184,87934,6,0,B|224:184,2,80.000000596046,8|0|8,0:0|0:0|0:0,0:0:0:0:
352,72,89636,1,10,0:0:0:0:
224,72,90487,1,10,0:0:0:0:
152,176,91338,6,0,B|328:176,1,160.000001192092,10|10,0:0|0:0,0:0:0:0:
432,176,93041,2,0,B|432:264,2,80.000000596046,10|0|10,0:0|0:0|0:0,0:0:0:0:
392,128,94317,6,0,B|312:128|312:128|312:208,1,160.000001192092,4|10,0:0|0:0,0:0:0:0:
312,296,95807,2,0,B|232:296|232:296|232:216,1,160.000001192092,4|10,0:0|0:0,0:0:0:0:
256,192,97296,12,4,101126,0:0:0:0:
80,168,114743,6,0,B|152:168|152:168|152:96|152:96|256:96,1,240.000001788138,12|10,0:0|0:0,0:0:0:0:
312,104,116445,2,0,B|328:152|312:192,3,80.000000596046,0|10|0|10,0:0|0:0|0:0|0:0,0:0:0:0:
248,288,118573,5,10,0:0:0:0:
248,168,119424,1,10,0:0:0:0:
368,168,120275,1,10,0:0:0:0:
288,72,121126,6,0,B|192:72,3,80.000000596046,8|2|8|2,0:0|0:0|0:0|0:0,0:0:0:0:
96,128,123253,2,0,B|96:208,2,80.000000596046,2|8|2,0:0|0:0|0:0,0:0:0:0:
208,72,124956,6,0,B|296:48|376:88|384:152|392:192,1,240.000001788138,4|10,0:0|0:0,0:0:0:0:
360,232,126658,2,0,B|272:256|192:216|184:152|176:112,1,240.000001788138,4|10,0:0|0:0,0:0:0:0:
72,64,128785,5,10,0:0:0:0:
72,128,129211,2,0,B|72:216,1,80.000000596046,2|8,0:0|0:0,0:0:0:0:
192,248,130487,5,10,0:0:0:0:
280,152,131339,1,10,0:0:0:0:
408,128,132190,2,8,B|384:168|384:168|384:280,1,160.000001192092,10|10,0:0|0:0,0:0:0:0:
280,208,133892,2,8,B|288:320|176:312,1,160.000001192092,10|10,0:0|0:0,0:0:0:0:
192,184,135594,6,8,B|184:72|296:80,1,160.000001192092,10|10,0:0|0:0,0:0:0:0:
408,96,137296,2,8,B|432:136|432:136|432:248,1,160.000001192092,10|10,0:0|0:0,0:0:0:0:
312,288,138998,2,0,B|232:328|152:288,2,160.000001192092,10|10|10,0:0|0:0|0:0,0:0:0:0:
256,192,140913,12,8,144956,0:0:0:0:
104,80,145381,6,0,B|104:168,3,80.000000596046,8|10|8|10,0:0|0:0|0:0|0:0,0:0:0:0:
104,224,147083,2,0,B|200:296|200:296|304:216,1,240.000001788138,10|10,0:0|0:0,0:0:0:0:
320,168,148785,6,0,B|320:88,3,80.000000596046,8|10|8|10,0:0|0:0|0:0|0:0,0:0:0:0:
256,88,150487,2,0,B|160:88|160:88|160:160|232:208,1,240.000001788138,8|8,0:0|0:0,0:0:0:0:
184,248,152190,6,0,B|96:248,3,80.000000596046,8|10|8|10,0:0|0:0|0:0|0:0,0:0:0:0:
72,192,153892,2,0,B|112:112|200:88,2,160.000001192092,10|10|14,0:0|0:0|0:0,0:0:0:0:
120,320,156445,1,12,0:0:0:0:
256,192,157083,12,4,158998,0:0:0:0:
112,112,159849,5,10,0:0:0:0:
232,112,160700,1,10,0:0:0:0:
352,112,161551,1,10,0:0:0:0:
384,224,162402,2,0,B|384:304|384:304|296:304|296:304|296:224|296:224|208:224,1,320.000002384184,10|10,0:0|0:0,0:0:0:0:
104,224,164956,1,10,0:0:0:0:
104,96,165807,6,0,B|192:96|192:96|224:176|224:176|264:96|264:96|328:96,1,320.000002384184,12|10,0:0|0:0,0:0:0:0:
432,96,168360,1,10,0:0:0:0:
328,168,169211,2,0,B|296:224|376:264|320:328,2,160.000001192092,10|10|10,0:0|0:0|0:0,0:0:0:0:
232,80,171764,2,0,B|144:80,1,80.000000596046,8|10,0:0|0:0,0:0:0:0:
136,144,172615,6,0,B|136:216|136:216|200:272|200:272|264:216|264:216|264:136,1,320.000002384184,12|10,0:0|0:0,0:0:0:0:
288,80,174743,2,0,B|384:80,3,80.000000596046,8|10|8|10,0:0|0:0|0:0|0:0,0:0:0:0:
448,176,176870,5,10,0:0:0:0:
368,272,177722,1,10,0:0:0:0:
248,272,178573,1,10,0:0:0:0:
168,176,179424,6,0,B|136:200|96:240,3,80.000000596046,10|8|10|8,0:0|0:0|0:0|0:0,0:0:0:0:
64,264,181126,1,10,0:0:0:0:
192,288,181977,1,10,0:0:0:0:
256,192,182828,12,12,186232,0:0:0:0:
104,296,190488,6,0,B|104:200,1,80.000000596046,4|10,0:0|0:0,0:0:0:0:
104,88,191764,2,0,B|184:88,3,80.000000596046,10|0|10|0,0:0|0:0|0:0|0:0,0:0:0:0:
312,88,193892,6,0,B|416:80|464:176|424:264,1,240.000001788138,12|10,0:0|0:0,0:0:0:0:
368,248,195594,2,0,B|288:248,3,80.000000596046,4|10|4|10,0:0|0:0|0:0|0:0,0:0:0:0:
200,152,197722,6,10,B|200:312,1,160.000001192092
112,216,199424,2,0,B|112:56,1,160.000001192092,10|10,0:0|0:0,0:0:0:0:
192,56,200700,2,0,B|280:56,2,80.000000596046,4|0|4,0:0|0:0|0:0,0:0:0:0:
256,192,202190,12,4,204105,0:0:0:0:
120,96,204956,6,0,B|288:96,1,160.000001192092,10|12,0:0|0:0,0:0:0:0:
272,160,206232,2,0,B|432:160,1,160.000001192092,10|10,0:0|0:0,0:0:0:0:
352,256,207934,6,0,B|296:328|208:312,1,160.000001192092,10|10,0:0|0:0,0:0:0:0:
160,280,209211,2,0,B|160:200,3,80.000000596046,4|4|4|4,0:0|0:0|0:0|0:0,0:0:0:0:
128,72,211339,5,10,0:0:0:0:
128,72,211764,1,10,0:0:0:0:
184,184,212615,2,0,B|232:264|336:256,1,160.000001192092,4|10,0:0|0:0,0:0:0:0:
256,192,214105,12,4,217296,0:0:0:0:
