osu file format v14

[General]
AudioFilename: Ring! Dong! Dang!.mp3
AudioLeadIn: 0
PreviewTime: 50499
Countdown: 0
SampleSet: Normal
StackLeniency: 0.7
Mode: 0
LetterboxInBreaks: 0
WidescreenStoryboard: 1

[Editor]
Bookmarks: 60854
DistanceSpacing: 0.9
BeatDivisor: 4
GridSize: 4
TimelineZoom: 1.200001

[Metadata]
Title:Ring Dong Dang!
TitleUnicode:Ring Dong Dang!
Artist:Hirokawa Nanase, Hiiragi Yuka, R!N
ArtistUnicode:廣川奈々聖、柊優花、R!N
Creator:Lanturn
Version:Normal Mode
Source:Girls Mode 4 スター☆スタイリスト
Tags:ガールズモード Star Stylist Styling Savvy Nintendo Presents New Boutique 3DS Switch Super Smash Bros. Brothers Ultimate 大乱闘スマッシュブラザーズ SPECIAL a Ding The World Standard Rosie Mayfield Yolanda Artemisia Alina Golding Japanese Video Game Cut from わーすた Wasuta RIN 桜野やよい 青紫月子 黄梨蛍 Sakurano Yayoi Aomurasaki Tsukiko Kinashi Hotaru Ring! Dong!
BeatmapID:1874243
BeatmapSetID:897000

[Difficulty]
HPDrainRate:3
CircleSize:3.5
OverallDifficulty:4
ApproachRate:5
SliderMultiplier:1.4
SliderTickRate:1

[Events]
//Background and Video events
0,0,"Ring a bell.jpg",0,0
Video,-230,"RingADing.avi"
//Break Periods
//Storyboard Layer 0 (Background)
//Storyboard Layer 1 (Fail)
//Storyboard Layer 2 (Pass)
//Storyboard Layer 3 (Foreground)
//Storyboard Sound Samples

[TimingPoints]
1078,447.761194029851,4,1,1,60,1,0
8242,-100,4,1,1,80,0,0
22570,-100,4,1,1,70,0,0
25480,-100,4,1,1,40,0,0
25704,-100,4,1,1,70,0,0
32645,-100,4,1,1,40,0,0
32869,-100,4,1,1,70,0,0
43839,-100,4,1,1,50,0,0
44063,-100,4,1,1,70,0,0
51227,-100,4,1,1,80,0,1
69137,-100,4,1,1,70,0,0
83466,-100,4,1,1,40,0,0

[Colours]
Combo1 : 0,166,255
Combo2 : 255,128,192
Combo3 : 40,255,255
Combo4 : 232,88,252

[HitObjects]
184,168,1078,6,0,L|136:268,2,105,2|2|2,0:2|0:2|0:2,0:0:0:0:
280,88,2197,1,2,0:2:0:0:
320,136,2421,1,2,0:2:0:0:
340,196,2645,1,2,0:2:0:0:
324,256,2869,2,0,P|288:284|220:280,1,105,2|2,0:2|0:2,0:0:0:0:
160,220,3540,2,0,B|128:164|184:140|152:84,1,140,2|0,0:2|0:0,0:0:0:0:
52,8,4436,1,2,0:2:0:0:
20,62,4660,5,2,0:2:0:0:
92,164,5107,2,0,B|128:228|72:236|112:304,1,140,2|0,0:2|0:0,0:0:0:0:
160,336,5779,1,2,0:2:0:0:
216,308,6003,1,2,0:2:0:0:
248,256,6227,1,2,0:2:0:0:
312,148,6675,1,8,0:0:0:0:
336,208,6898,1,2,0:0:0:0:
392,236,7122,2,0,L|456:224,2,35,8|8|8,0:0|0:0|0:0,0:0:0:0:
296,320,7794,1,2,0:2:0:0:
296,320,8242,6,0,P|216:348|144:316,1,140,4|8,0:0|0:0,0:0:0:0:
56,272,9137,1,2,0:0:0:0:
32,212,9361,1,0,0:0:0:0:
52,152,9585,1,8,0:0:0:0:
144,68,10033,2,0,P|204:88|292:68,1,140,2|8,0:0|0:0,0:0:0:0:
352,180,10928,2,0,P|292:160|204:180,1,140,2|8,0:0|0:0,0:0:0:0:
128,260,11824,6,0,L|36:288,2,70,2|0|8,0:0|0:0|0:0,0:0:0:0:
184,288,12495,1,0,0:0:0:0:
184,288,12719,1,2,0:0:0:0:
310,288,13167,1,8,0:0:0:0:
310,288,13391,1,0,0:0:0:0:
354,243,13615,2,0,L|420:222,2,70,2|0|8,0:0|0:0|0:0,0:0:0:0:
236,196,14510,1,2,0:0:0:0:
196,148,14734,1,0,0:0:0:0:
200,84,14958,1,8,0:0:0:0:
316,40,15406,6,0,B|368:88|368:88|396:168,1,140,4|8,0:0|0:0,0:0:0:0:
360,276,16301,1,2,0:0:0:0:
316,324,16525,1,0,0:0:0:0:
260,348,16749,1,8,0:0:0:0:
148,292,17197,2,0,P|120:228|136:148,1,140,2|8,0:0|0:0,0:0:0:0:
256,160,18092,2,0,P|265:228|237:291,1,140,2|8,0:0|0:0,0:0:0:0:
112,272,18988,6,0,L|45:227,2,70,2|0|8,0:0|0:0|0:0,0:0:0:0:
172,274,19660,1,0,0:0:0:0:
172,274,19883,1,2,0:0:0:0:
243,168,20331,1,8,0:0:0:0:
243,168,20555,1,2,0:0:0:0:
230,106,20779,2,0,L|167:64,2,70,4|0|2,0:2|0:0|0:2,0:0:0:0:
356,84,21675,1,2,0:2:0:0:
416,100,21898,1,0,0:0:0:0:
452,152,22122,1,2,0:0:0:0:
420,275,22570,6,0,L|280:316,1,140,4|8,0:0|0:0,0:0:0:0:
332,196,23466,2,0,L|192:237,1,140,8|8,0:0|0:0,0:0:0:0:
244,116,24361,2,0,L|104:157,1,140,8|8,0:0|0:0,0:0:0:0:
32,56,25257,1,8,0:0:0:0:
0,112,25480,1,8,0:0:0:0:
8,176,25704,1,8,0:0:0:0:
92,275,26152,6,0,L|232:316,1,140,8|8,0:0|0:0,0:0:0:0:
180,196,27048,2,0,L|320:237,1,140,8|8,0:0|0:0,0:0:0:0:
268,116,27943,2,0,L|408:157,1,140,8|8,0:0|0:0,0:0:0:0:
448,272,28839,1,8,0:0:0:0:
420,328,29063,1,8,0:0:0:0:
364,356,29286,1,8,0:0:0:0:
248,308,29734,6,0,P|176:328|92:308,1,140,4|8,0:0|0:0,0:0:0:0:
104,192,30630,2,0,P|176:172|260:192,1,140,8|8,0:0|0:0,0:0:0:0:
248,308,31525,2,0,P|316:318|383:298,1,140,8|8,0:0|0:0,0:0:0:0:
380,172,32421,1,8,0:0:0:0:
320,148,32645,1,8,0:0:0:0:
256,156,32869,1,8,0:0:0:0:
172,252,33316,6,0,P|152:319|72:376,1,140,8|8,0:0|0:0,0:0:0:0:
4,288,34212,2,0,P|24:221|104:164,1,140,8|2,0:0|0:0,0:0:0:0:
132,200,34883,2,0,B|200:220|200:220|284:200,1,140,8|8,0:0|0:0,0:0:0:0:
308,156,35555,1,8,0:0:0:0:
212,72,36003,2,0,P|180:84|140:84,1,70,8|8,0:0|0:0,0:0:0:0:
84,68,36451,2,0,P|64:96|60:136,1,70,8|8,0:0|0:3,0:0:0:0:
56,196,36898,6,0,L|32:284,2,70,4|0|8,0:0|0:0|0:0,0:0:0:0:
176,236,37794,2,0,L|152:324,2,70,8|2|8,0:0|0:0|0:0,0:0:0:0:
296,268,38689,2,0,L|272:356,2,70,8|2|8,0:0|0:0|0:0,0:0:0:0:
420,292,39585,1,8,0:0:0:0:
452,236,39809,1,2,0:0:0:0:
448,172,40033,1,8,0:0:0:0:
354,80,40480,6,0,L|440:80,2,70,4|0|8,0:0|0:0|0:0,0:0:0:0:
256,160,41376,2,0,L|256:256,2,70,8|2|8,0:0|0:0|0:0,0:0:0:0:
158,80,42271,2,0,L|76:80,2,70,8|2|8,0:0|0:0|0:0,0:0:0:0:
276,36,43167,2,0,B|324:24|324:56|380:36,2,105,8|8|8,0:0|0:0|0:3,0:0:0:0:
220,68,44063,6,0,P|220:132|260:204,1,140,4|8,0:0|0:0,0:0:0:0:
296,244,44734,2,0,P|228:224|136:260,1,140,2|0,0:2|0:0,0:0:0:0:
116,284,45406,2,0,L|36:284,1,70,8|2,0:0|0:2,0:0:0:0:
8,164,46078,2,0,L|100:164,1,70,0|8,0:0|0:0,0:0:0:0:
124,124,46525,2,0,P|180:112|260:132,1,140,2|0,0:2|0:0,0:0:0:0:
303,176,47197,1,8,0:0:0:0:
258,220,47421,2,0,P|191:239|122:227,1,140,4|0,0:0|0:0,0:0:0:0:
64,200,48092,1,8,0:0:0:0:
12,68,48540,5,2,0:2:0:0:
80,32,48764,1,8,0:0:0:0:
156,28,48988,1,8,0:0:0:0:
224,68,49212,6,0,B|208:132|268:184|268:184|204:224|204:224|264:288|220:356,1,350,8|0,0:3|0:0,0:0:0:0:
128,328,51227,6,0,P|76:344|8:328,2,105,4|2|2,0:0|0:2|0:2,0:0:0:0:
216,236,52346,1,2,0:2:0:0:
276,212,52570,1,8,0:0:0:0:
340,224,52794,1,2,0:2:0:0:
393,256,53018,2,0,P|445:272|513:256,2,105,2|2|2,0:2|0:2|0:2,0:0:0:0:
276,212,54137,1,8,0:0:0:0:
216,236,54361,1,8,0:0:0:0:
136,332,54809,5,2,0:2:0:0:
44,256,55257,2,0,P|80:196|112:256,1,140,8|0,0:0|0:0,0:0:0:0:
92,288,55928,1,2,0:2:0:0:
136,332,56152,1,8,0:0:0:0:
200,332,56376,1,2,0:2:0:0:
252,296,56600,2,0,P|300:284|356:296,2,105,2|2|2,0:2|0:2|0:2,0:0:0:0:
200,332,57495,1,2,0:2:0:0:
120,248,57943,2,0,L|120:164,1,70,8|8,0:0|0:3,0:0:0:0:
164,132,58391,6,0,P|216:152|272:136,2,105,4|2|2,0:0|0:2|0:2,0:0:0:0:
224,20,59510,1,8,0:0:0:0:
288,20,59734,1,8,0:0:0:0:
348,132,60182,2,0,P|296:152|240:136,2,105,2|2|2,0:2|0:2|0:2,0:0:0:0:
428,232,61301,1,8,0:0:0:0:
388,280,61525,1,8,0:0:0:0:
268,316,61973,5,2,0:2:0:0:
152,264,62421,2,0,P|136:212|204:208,1,140,8|0,0:0|0:0,0:0:0:0:
216,268,63092,1,2,0:2:0:0:
196,328,63316,1,8,0:0:0:0:
140,360,63540,1,2,0:2:0:0:
80,348,63764,2,0,L|24:256,2,105,2|2|2,0:2|0:2|0:2,0:0:0:0:
140,360,64660,1,2,0:2:0:0:
228,271,65107,2,0,L|324:271,1,70,8|8,0:0|0:0,0:0:0:0:
342,226,65555,6,0,P|386:174|382:90,2,140,8|8|8,0:0|0:0|0:0,0:0:0:0:
280,224,66675,1,2,0:2:0:0:
228,192,66898,1,8,0:0:0:0:
204,136,67122,1,2,0:2:0:0:
132,32,67570,1,8,0:0:0:0:
116,92,67794,1,8,0:0:0:0:
72,140,68018,2,0,L|16:140,2,35,8|8|8,0:0|0:0|0:0,0:0:0:0:
136,248,68689,1,8,0:0:0:0:
240,320,69137,6,0,P|308:332|380:320,1,140,4|8,0:0|0:0,0:0:0:0:
460,224,70033,1,2,0:0:0:0:
468,160,70257,1,0,0:0:0:0:
476,96,70480,1,8,0:0:0:0:
364,40,70928,2,0,P|324:76|220:96,1,140,2|8,0:0|0:0,0:0:0:0:
132,160,71824,2,0,P|172:196|276:216,1,140,2|8,0:0|0:0,0:0:0:0:
372,172,72719,6,0,P|416:164|456:172,2,70,2|0|8,0:0|0:0|0:0,0:0:0:0:
349,231,73391,1,0,0:0:0:0:
349,231,73615,1,2,0:0:0:0:
236,292,74063,1,8,0:0:0:0:
236,292,74286,1,0,0:0:0:0:
200,240,74510,2,0,P|156:232|116:240,2,70,2|0|8,0:0|0:0|0:0,0:0:0:0:
312,296,75406,1,2,0:0:0:0:
372,312,75630,1,8,0:0:0:0:
432,292,75854,1,8,0:0:0:0:
380,176,76301,6,0,P|312:184|240:160,1,140,4|8,0:0|0:0,0:0:0:0:
124,124,77197,1,2,0:0:0:0:
104,184,77421,1,0,0:0:0:0:
84,244,77645,1,8,0:0:0:0:
172,336,78092,2,0,L|319:348,1,140,2|8,0:0|0:0,0:0:0:0:
410,272,78988,2,0,L|270:259,1,140,2|8,0:0|0:0,0:0:0:0:
212,148,79883,6,0,L|212:56,2,70,2|0|8,0:0|0:0|0:0,0:0:0:0:
167,192,80555,1,0,0:0:0:0:
167,192,80779,1,2,0:0:0:0:
284,240,81227,1,8,0:0:0:0:
284,240,81451,1,0,0:0:0:0:
231,272,81675,2,0,L|231:344,2,70,2|8|2,0:0|0:0|0:0,0:0:0:0:
112,232,82570,1,2,0:0:0:0:
84,176,82794,1,8,0:0:0:0:
96,116,83018,1,8,0:0:0:0:
196,36,83466,6,0,B|264:24|264:64|340:40,1,140,2|2,0:2|0:2,0:0:0:0:
456,20,84361,1,2,0:2:0:0:
456,20,84585,1,2,0:2:0:0:
456,20,84809,1,2,0:2:0:0:
