osu file format v14

[General]
AudioFilename: Ring! Dong! Dang!.mp3
AudioLeadIn: 0
PreviewTime: 50499
Countdown: 0
SampleSet: Normal
StackLeniency: 0.7
Mode: 0
LetterboxInBreaks: 0
WidescreenStoryboard: 0

[Editor]
Bookmarks: 60854
DistanceSpacing: 0.5
BeatDivisor: 4
GridSize: 4
TimelineZoom: 1.200001

[Metadata]
Title:Ring Dong Dang!
TitleUnicode:Ring Dong Dang!
Artist:Hirokawa Nanase, Hiiragi Yuka, R!N
ArtistUnicode:廣川奈々聖、柊優花、R!N
Creator:Lanturn
Version:Insane Mode
Source:Girls Mode 4 スター☆スタイリスト
Tags:ガールズモード Star Stylist Styling Savvy Nintendo Presents New Boutique 3DS Switch Super Smash Bros. Brothers Ultimate 大乱闘スマッシュブラザーズ SPECIAL a Ding The World Standard Rosie Mayfield Yolanda Artemisia Alina Golding Japanese Video Game Cut from わーすた Wasuta RIN 桜野やよい 青紫月子 黄梨蛍 Sakurano Yayoi Aomurasaki Tsukiko Kinashi Hotaru Ring! Dong!
BeatmapID:1874029
BeatmapSetID:897000

[Difficulty]
HPDrainRate:6
CircleSize:4
OverallDifficulty:7
ApproachRate:8
SliderMultiplier:2
SliderTickRate:1

[Events]
//Background and Video events
0,0,"Ring a bell.jpg",0,0
Video,-230,"RingADing.avi"
//Break Periods
//Storyboard Layer 0 (Background)
//Storyboard Layer 1 (Fail)
//Storyboard Layer 2 (Pass)
//Storyboard Layer 3 (Foreground)
//Storyboard Sound Samples

[TimingPoints]
1078,447.761194029851,4,1,1,60,1,0
1078,-111.111111111111,4,1,1,60,0,0
8242,-100,4,1,1,80,0,0
22570,-125,4,1,1,70,0,0
25480,-125,4,1,1,40,0,0
25704,-125,4,1,1,70,0,0
32645,-125,4,1,1,40,0,0
32869,-125,4,1,1,70,0,0
36898,-111.111111111111,4,1,1,70,0,0
43839,-111.111111111111,4,1,1,50,0,0
44063,-111.111111111111,4,1,1,70,0,0
51227,-90.9090909090909,4,1,1,80,0,1
65555,-100,4,1,1,80,0,1
66675,-90.9090909090909,4,1,1,80,0,1
69137,-100,4,1,1,70,0,0
78316,-100,4,1,1,50,0,0
78540,-100,4,1,1,70,0,0
83466,-125,4,1,1,40,0,0

[Colours]
Combo1 : 0,166,255
Combo2 : 255,128,192
Combo3 : 40,255,255
Combo4 : 232,88,252

[HitObjects]
372,117,1078,6,0,P|349:170|372:235,1,89.9999972534181,2|0,0:2|0:0,0:0:0:0:
379,236,1413,2,0,P|331:246|305:279,1,89.9999972534181,2|0,0:2|0:0,0:0:0:0:
278,312,1749,2,0,L|188:312,1,89.9999972534181,2|0,0:2|0:0,0:0:0:0:
52,288,2197,1,2,0:2:0:0:
124,172,2421,1,2,0:2:0:0:
192,288,2645,1,2,0:2:0:0:
4,184,2869,6,0,P|40:148|60:88,1,89.9999972534181,2|0,0:2|0:0,0:0:0:0:
32,76,3204,2,0,P|76:84|128:68,1,89.9999972534181,2|0,0:2|0:0,0:0:0:0:
156,44,3540,2,0,P|236:20|328:44,1,179.999994506836,2|0,0:2|0:0,0:0:0:0:
327,43,4436,1,2,0:2:0:0:
428,164,4660,6,0,P|405:223|420:295,1,134.999995880127,2|0,0:2|0:0,0:0:0:0:
452,324,5107,2,0,B|356:296|376:352|276:324,1,179.999994506836,2|0,0:2|0:0,0:0:0:0:
196,232,5779,1,2,0:2:0:0:
328,236,6003,1,2,0:2:0:0:
168,320,6227,1,2,0:2:0:0:
168,320,6675,5,8,0:0:0:0:
341,351,6898,1,2,0:0:0:0:
222,189,7122,1,8,0:0:0:0:
218,166,7234,1,8,0:0:0:0:
229,146,7346,1,8,0:0:0:0:
247,118,7794,5,2,0:2:0:0:
273,102,8242,6,0,L|384:87,1,100,4|0,0:0|0:0,0:0:0:0:
354,216,8689,2,0,L|465:201,1,100,8|0,0:0|0:0,0:0:0:0:
508,118,9138,1,2,0:0:0:0:
372,88,9362,1,0,0:0:0:0:
410,272,9585,2,0,P|357:293|310:285,1,100,8|0,0:0|0:0,0:0:0:0:
118,216,10033,6,0,L|36:286,1,100,2|0,0:0|0:0,0:0:0:0:
96,124,10480,2,0,L|14:194,1,100,8|0,0:0|0:0,0:0:0:0:
80,32,10928,2,0,L|-2:102,1,100,2|0,0:0|0:0,0:0:0:0:
118,216,11377,1,8,0:0:0:0:
232,104,11600,1,8,0:0:0:0:
232,104,11712,1,8,0:0:0:0:
232,104,11824,5,2,0:0:0:0:
396,184,12048,1,0,0:0:0:0:
248,192,12272,1,8,0:0:0:0:
324,44,12496,1,0,0:0:0:0:
432,168,12720,2,0,L|448:280,1,100,2|0,0:0|0:0,0:0:0:0:
384,344,13168,1,8,0:0:0:0:
308,232,13391,1,0,0:0:0:0:
240,364,13615,5,2,0:0:0:0:
372,272,13839,1,0,0:0:0:0:
168,180,14063,2,0,P|160:124|182:81,1,100,8|0,0:0|0:0,0:0:0:0:
276,24,14511,1,2,0:0:0:0:
368,152,14734,1,0,0:0:0:0:
284,264,14958,1,8,0:0:0:0:
248,296,15406,6,0,L|140:272,1,100,4|0,0:0|0:0,0:0:0:0:
253,181,15854,2,0,L|145:157,1,100,8|0,0:0|0:0,0:0:0:0:
80,104,16302,1,2,0:0:0:0:
184,12,16526,1,0,0:0:0:0:
280,172,16749,2,0,P|272:228|236:280,1,100,8|0,0:0|0:0,0:0:0:0:
372,148,17197,6,0,L|396:44,1,100,2|0,0:0|0:0,0:0:0:0:
280,172,17645,2,0,L|304:68,1,100,8|0,0:0|0:0,0:0:0:0:
188,196,18092,2,0,L|212:92,1,100,2|0,0:0|0:0,0:0:0:0:
152,40,18541,1,8,0:0:0:0:
280,168,18764,1,8,0:0:0:0:
280,168,18876,1,8,0:0:0:0:
280,168,18988,5,2,0:0:0:0:
376,96,19212,1,0,0:0:0:0:
472,232,19436,1,8,0:0:0:0:
500,32,19660,1,0,0:0:0:0:
377,119,19883,1,2,0:0:0:0:
259,54,20107,1,8,0:0:0:0:
233,70,20219,1,8,0:0:0:0:
220,97,20331,1,8,0:0:0:0:
223,126,20443,1,8,0:0:0:0:
239,150,20555,1,2,0:0:0:0:
425,251,20779,6,0,P|377:335|341:359,1,100,4|0,0:2|0:0,0:0:0:0:
276,268,21227,2,0,P|228:352|192:376,1,100,2|0,0:2|0:0,0:0:0:0:
128,280,21675,2,0,P|80:364|44:388,1,100,2|0,0:2|0:0,0:0:0:0:
48,367,22010,1,8,0:0:0:0:
22,351,22122,1,2,0:0:0:0:
44,185,22346,1,8,0:0:0:0:
83,182,22458,1,8,0:0:0:0:
114,178,22570,6,0,L|218:170,1,80,4|0,0:0|0:0,0:0:0:0:
311,87,23018,2,0,L|231:93,1,80,8|0,0:0|0:0,0:0:0:0:
165,250,23466,2,0,L|269:242,1,80,8|0,0:0|0:0,0:0:0:0:
362,159,23914,2,0,L|282:165,1,80,8|0,0:0|0:0,0:0:0:0:
218,322,24361,6,0,L|322:314,1,80,8|0,0:0|0:0,0:0:0:0:
415,231,24809,2,0,L|335:237,1,80,8|0,0:0|0:0,0:0:0:0:
454,359,25257,1,8,0:0:0:0:
478,177,25480,1,8,0:0:0:0:
454,359,25704,2,0,P|475:320|477:276,1,80,8|0,0:0|0:0,0:0:0:0:
398,206,26152,6,0,L|294:214,1,80,8|0,0:0|0:0,0:0:0:0:
201,297,26600,2,0,L|280:290,1,80,8|0,0:0|0:0,0:0:0:0:
347,134,27048,2,0,L|243:142,1,80,8|0,0:0|0:0,0:0:0:0:
150,225,27496,2,0,L|229:218,1,80,8|0,0:0|0:0,0:0:0:0:
294,62,27943,6,0,L|190:70,1,80,8|0,0:0|0:0,0:0:0:0:
97,153,28391,2,0,L|176:146,1,80,8|0,0:0|0:0,0:0:0:0:
58,25,28839,1,8,0:0:0:0:
34,207,29063,1,8,0:0:0:0:
34,207,29175,1,8,0:0:0:0:
34,207,29286,1,8,0:0:0:0:
135,96,29510,1,8,0:3:0:0:
211,272,29734,6,0,P|214:325|191:376,1,80,4|0,0:0|0:0,0:0:0:0:
144,180,30182,2,0,P|141:127|164:76,1,80,8|0,0:0|0:0,0:0:0:0:
300,238,30630,2,0,P|303:291|280:342,1,80,8|0,0:0|0:0,0:0:0:0:
233,146,31078,2,0,P|230:93|253:42,1,80,8|0,0:0|0:0,0:0:0:0:
394,197,31525,6,0,P|397:250|374:301,1,80,8|0,0:0|0:0,0:0:0:0:
327,105,31973,2,0,P|324:52|347:1,1,80,8|0,0:0|0:0,0:0:0:0:
446,134,32421,1,8,0:0:0:0:
302,64,32644,1,8,0:0:0:0:
493,37,32868,2,0,L|476:119,1,80,8|0,0:0|0:0,0:0:0:0:
308,193,33316,6,0,P|265:182|226:192,1,80,8|0,0:0|0:0,0:0:0:0:
112,248,33764,2,0,P|155:259|194:249,1,80,8|0,0:0|0:0,0:0:0:0:
370,161,34212,2,0,L|326:317,1,160,8|2,0:0|0:0,0:0:0:0:
332,84,34883,6,0,P|301:110|282:154,1,80,8|0,0:0|0:0,0:0:0:0:
441,110,35331,1,8,0:0:0:0:
276,225,35555,1,8,0:0:0:0:
276,225,36003,1,8,0:0:0:0:
332,84,36227,1,8,0:0:0:0:
332,60,36339,1,8,0:0:0:0:
327,36,36451,1,8,0:0:0:0:
202,34,36675,5,8,0:3:0:0:
198,65,36786,1,8,0:3:0:0:
205,100,36898,6,0,P|174:133|127:149,1,89.9999972534181,4|0,0:0|0:0,0:0:0:0:
2,17,37346,1,8,0:0:0:0:
43,140,37570,1,2,0:0:0:0:
190,22,37794,2,0,B|235:11|235:11|278:23,1,89.9999972534181,8|2,0:0|0:0,0:0:0:0:
392,179,38242,2,0,B|346:189|346:189|304:178,1,89.9999972534181,8|2,0:0|0:0,0:0:0:0:
379,22,38689,5,8,0:0:0:0:
441,151,38913,1,2,0:0:0:0:
499,5,39137,1,8,0:0:0:0:
364,103,39361,1,2,0:0:0:0:
499,256,39585,1,8,0:0:0:0:
491,83,39809,1,2,0:0:0:0:
367,238,40033,2,0,B|319:252|321:228|268:237,1,89.9999972534181,8|2,0:0|0:0,0:0:0:0:
117,331,40480,6,0,L|83:242,1,89.9999972534181,4|0,0:0|0:0,0:0:0:0:
240,120,40928,1,8,0:0:0:0:
172,260,41152,1,2,0:0:0:0:
174,61,41376,2,0,P|214:35|264:39,1,89.9999972534181,8|2,0:0|0:0,0:0:0:0:
388,175,41824,2,0,P|348:201|298:197,1,89.9999972534181,8|2,0:0|0:0,0:0:0:0:
412,63,42271,5,8,0:0:0:0:
483,194,42495,1,2,0:0:0:0:
314,125,42719,2,0,L|232:162,1,89.9999972534181,8|2,0:0|0:0,0:0:0:0:
67,116,43167,2,0,L|149:79,1,89.9999972534181,8|2,0:0|0:0,0:0:0:0:
181,63,43503,2,0,L|181:16,2,44.999998626709,8|8|8,0:0|0:0|0:0,0:0:0:0:
210,84,43839,1,8,0:3:0:0:
286,233,44063,6,0,P|201:272|108:248,1,179.999994506836,4|8,0:0|0:0,0:0:0:0:
70,145,44734,2,0,P|70:239|16:303,1,179.999994506836,2|0,0:2|0:0,0:0:0:0:
55,114,45406,1,8,0:0:0:0:
217,254,45630,2,0,P|307:284|387:258,1,179.999994506836,2|0,0:2|0:0,0:0:0:0:
189,238,46301,1,8,0:0:0:0:
412,240,46525,2,0,P|443:161|399:78,1,179.999994506836,2|0,0:2|0:0,0:0:0:0:
391,260,47197,1,8,0:0:0:0:
212,92,47421,6,0,L|196:184,1,89.9999972534181,4|0,0:0|0:0,0:0:0:0:
264,359,47869,1,0,0:0:0:0:
105,300,48092,1,8,0:0:0:0:
286,251,48316,1,0,0:0:0:0:
97,207,48540,5,2,0:2:0:0:
255,56,48764,1,8,0:0:0:0:
319,314,48988,1,8,0:0:0:0:
29,155,49212,6,0,P|13:203|31:262,1,89.9999972534181,8|2,0:3|0:0,0:0:0:0:
108,329,49660,1,8,0:0:0:0:
133,337,49772,1,8,0:0:0:0:
159,335,49883,1,8,0:0:0:0:
305,262,50107,1,8,0:0:0:0:
339,252,50219,1,8,0:0:0:0:
373,260,50330,1,8,0:0:0:0:
345,221,51227,6,0,P|337:277|281:332,1,110.000003356934,4|0,0:0|0:0,0:0:0:0:
249,236,51563,2,0,P|214:280|138:300,1,110.000003356934,2|0,0:2|0:0,0:0:0:0:
156,202,51898,2,0,P|103:223|27:202,1,110.000003356934,2|0,0:2|0:0,0:0:0:0:
159,56,52346,1,2,0:2:0:0:
262,191,52570,1,8,0:0:0:0:
279,22,52794,1,2,0:2:0:0:
167,221,53018,6,0,P|175:277|231:332,1,110.000003356934,2|0,0:2|0:0,0:0:0:0:
263,236,53354,2,0,P|297:280|373:300,1,110.000003356934,2|0,0:2|0:0,0:0:0:0:
356,202,53689,2,0,P|408:223|484:202,1,110.000003356934,2|0,0:2|0:0,0:0:0:0:
343,62,54137,1,8,0:0:0:0:
480,304,54361,1,8,0:0:0:0:
300,283,54585,2,0,P|279:254|302:248,1,55.0000016784668,2|0,0:2|0:0,0:0:0:0:
328,256,54809,6,0,P|248:284|148:256,1,165.000005035401,2|0,0:2|0:0,0:0:0:0:
131,242,55257,2,0,P|160:164|184:244,1,220.000006713867,8|0,0:0|0:0,0:0:0:0:
69,313,55928,1,2,0:2:0:0:
160,113,56152,1,8,0:0:0:0:
251,313,56376,1,2,0:2:0:0:
400,260,56600,6,0,L|416:128,1,110.000003356934,2|0,0:2|0:0,0:0:0:0:
335,62,56936,2,0,L|315:190,1,110.000003356934,2|0,0:2|0:0,0:0:0:0:
217,232,57272,2,0,L|231:142,1,55.0000016784668,2|0,0:2|0:0,0:0:0:0:
166,68,57495,1,2,0:2:0:0:
166,68,57607,1,8,0:0:0:0:
166,68,57719,1,8,0:0:0:0:
64,198,57943,1,8,0:0:0:0:
79,239,58055,1,2,0:2:0:0:
106,273,58167,1,8,0:3:0:0:
144,294,58279,1,2,0:0:0:0:
188,294,58391,6,0,L|288:194,1,110.000003356934,4|0,0:0|0:0,0:0:0:0:
270,94,58727,2,0,L|192:171,1,110.000003356934,2|0,0:2|0:0,0:0:0:0:
70,177,59063,2,0,L|170:77,1,110.000003356934,2|0,0:2|0:0,0:0:0:0:
292,72,59510,1,8,0:0:0:0:
22,133,59734,2,0,P|7:192|58:241,1,110.000003356934,8|0,0:0|0:0,0:0:0:0:
163,321,60182,6,0,B|215:310|212:340|275:319,1,110.000003356934,2|0,0:2|0:0,0:0:0:0:
359,237,60518,2,0,B|307:226|310:256|247:235,1,110.000003356934,2|0,0:2|0:0,0:0:0:0:
162,153,60854,2,0,B|214:142|211:172|274:151,1,110.000003356934,2|0,0:2|0:0,0:0:0:0:
348,52,61301,1,8,0:0:0:0:
435,316,61525,1,8,0:0:0:0:
235,256,61749,2,0,P|249:226|283:231,1,55.0000016784668,2|0,0:2|0:0,0:0:0:0:
279,269,61973,6,0,P|193:296|104:253,1,165.000005035401,2|0,0:2|0:0,0:0:0:0:
91,235,62421,2,0,P|122:157|144:237,1,220.000006713867,8|0,0:0|0:0,0:0:0:0:
26,318,63092,1,2,0:2:0:0:
198,181,63316,1,8,0:0:0:0:
22,50,63540,1,2,0:2:0:0:
225,106,63764,6,0,L|317:226,1,110.000003356934,2|0,0:2|0:2,0:0:0:0:
263,309,64100,2,0,L|194:218,1,110.000003356934,2|0,0:2|0:0,0:0:0:0:
81,189,64436,2,0,L|118:240,1,55.0000016784668,2|0,0:2|0:0,0:0:0:0:
165,303,64660,1,2,0:2:0:0:
142,124,64883,1,8,0:0:0:0:
142,124,64995,1,8,0:0:0:0:
142,124,65107,1,8,0:0:0:0:
319,32,65331,1,8,0:0:0:0:
362,41,65443,1,8,0:0:0:0:
396,68,65555,6,0,P|398:123|371:181,1,100,8|0,0:0|0:0,0:0:0:0:
228,182,66003,2,0,P|226:237|253:298,1,100,8|0,0:0|0:0,0:0:0:0:
345,347,66451,1,8,0:0:0:0:
404,167,66675,1,2,0:2:0:0:
404,167,66786,1,8,0:0:0:0:
404,167,66898,1,8,0:0:0:0:
323,316,67122,2,0,L|218:347,1,110.000003356934,2|0,0:2|0:0,0:0:0:0:
51,273,67570,5,8,0:0:0:0:
320,200,67794,1,8,0:0:0:0:
62,123,68018,1,8,0:0:0:0:
62,123,68130,1,8,0:0:0:0:
62,123,68242,2,0,P|134:85|163:146,1,165.000005035401,8|8,0:0|0:0,0:0:0:0:
198,219,68689,2,0,P|237:281|299:240,1,165.000005035401,8|8,0:0|0:0,0:0:0:0:
372,208,69137,6,0,L|428:88,1,100,4|0,0:0|0:0,0:0:0:0:
308,116,69585,2,0,L|364:-4,1,100,8|0,0:0|0:0,0:0:0:0:
485,59,70033,1,2,0:0:0:0:
308,116,70257,1,0,0:0:0:0:
470,229,70480,2,0,P|463:278|424:320,1,100,8|0,0:0|0:0,0:0:0:0:
249,212,70928,6,0,L|205:318,1,100,2|0,0:0|0:0,0:0:0:0:
139,220,71376,2,0,L|102:312,1,100,8|0,0:0|0:0,0:0:0:0:
322,256,71824,2,0,P|334:207|322:159,1,100,2|0,0:0|0:0,0:0:0:0:
221,98,72272,1,8,0:0:0:0:
367,22,72495,1,8,0:0:0:0:
367,22,72607,1,8,0:0:0:0:
367,22,72719,5,2,0:0:0:0:
393,171,72943,1,0,0:0:0:0:
490,17,73167,1,8,0:0:0:0:
498,239,73391,1,0,0:0:0:0:
340,79,73615,2,0,P|290:75|237:93,1,100,2|0,0:0|0:0,0:0:0:0:
308,193,74063,1,8,0:0:0:0:
250,334,74286,1,0,0:0:0:0:
178,145,74510,5,2,0:0:0:0:
333,284,74734,1,0,0:0:0:0:
106,348,74958,2,0,P|72:304|64:260,1,100,8|0,0:0|0:0,0:0:0:0:
68,132,75406,1,2,0:0:0:0:
84,96,75518,1,8,0:0:0:0:
112,68,75630,1,8,0:0:0:0:
148,52,75742,1,8,0:0:0:0:
188,52,75854,1,8,0:0:0:0:
241,226,76078,1,2,0:0:0:0:
279,217,76189,1,8,0:3:0:0:
314,198,76301,6,0,P|336:153|333:94,1,100,4|0,0:0|0:0,0:0:0:0:
164,107,76749,2,0,L|262:138,1,100,8|0,0:0|0:0,0:0:0:0:
395,42,77197,1,2,0:0:0:0:
299,210,77421,1,0,0:0:0:0:
164,48,77645,2,0,L|108:140,1,100,8|0,0:0|0:0,0:0:0:0:
169,234,78092,5,2,0:0:0:0:
63,319,78316,1,8,0:0:0:0:
63,319,78428,1,8,0:0:0:0:
63,319,78540,2,0,P|100:353|177:348,1,100,8|0,0:0|0:0,0:0:0:0:
185,198,78988,2,0,L|134:287,1,100,2|0,0:0|0:0,0:0:0:0:
146,127,79436,1,8,0:0:0:0:
305,194,79659,1,8,0:0:0:0:
305,194,79771,1,8,0:0:0:0:
305,194,79883,5,2,0:0:0:0:
371,314,80107,1,0,0:0:0:0:
412,96,80331,1,8,0:0:0:0:
436,244,80555,1,0,0:0:0:0:
297,36,80779,2,0,P|266:71|261:138,1,100,2|0,0:0|0:0,0:0:0:0:
390,171,81227,2,0,P|421:136|426:69,1,100,8|0,0:0|0:0,0:0:0:0:
411,48,81563,1,8,0:0:0:0:
411,48,81674,5,2,0:0:0:0:
280,161,81898,1,8,0:0:0:0:
136,67,82122,1,2,0:0:0:0:
133,81,82234,1,8,0:0:0:0:
129,95,82346,1,8,0:0:0:0:
125,109,82458,1,8,0:3:0:0:
141,140,82570,1,2,0:0:0:0:
146,153,82682,1,8,0:0:0:0:
151,166,82794,1,8,0:0:0:0:
156,179,82906,1,2,0:0:0:0:
139,210,83018,1,8,0:0:0:0:
218,295,83242,1,8,0:0:0:0:
218,295,83354,1,8,0:0:0:0:
218,295,83466,6,0,L|254:371,1,80,2|0,0:2|0:0,0:0:0:0:
299,269,83913,2,0,L|335:345,1,80,2|0,0:2|0:0,0:0:0:0:
389,271,84361,1,2,0:2:0:0:
451,162,84585,1,2,0:2:0:0:
470,339,84809,1,2,0:2:0:0:
