osu file format v14

[General]
AudioFilename: Ring! Dong! Dang!.mp3
AudioLeadIn: 0
PreviewTime: 50499
Countdown: 0
SampleSet: Normal
StackLeniency: 0.7
Mode: 0
LetterboxInBreaks: 0
WidescreenStoryboard: 1

[Editor]
Bookmarks: 60854
DistanceSpacing: 1.2
BeatDivisor: 4
GridSize: 4
TimelineZoom: 1.200001

[Metadata]
Title:Ring Dong Dang!
TitleUnicode:Ring Dong Dang!
Artist:Hirokawa Nanase, Hiiragi Yuka, R!N
ArtistUnicode:廣川奈々聖、柊優花、R!N
Creator:Lanturn
Version:Hard Mode
Source:Girls Mode 4 スター☆スタイリスト
Tags:ガールズモード Star Stylist Styling Savvy Nintendo Presents New Boutique 3DS Switch Super Smash Bros. Brothers Ultimate 大乱闘スマッシュブラザーズ SPECIAL a Ding The World Standard Rosie Mayfield Yolanda Artemisia Alina Golding Japanese Video Game Cut from わーすた Wasuta RIN 桜野やよい 青紫月子 黄梨蛍 Sakurano Yayoi Aomurasaki Tsukiko Kinashi Hotaru Ring! Dong!
BeatmapID:1874166
BeatmapSetID:897000

[Difficulty]
HPDrainRate:5
CircleSize:4
OverallDifficulty:6
ApproachRate:7
SliderMultiplier:1.7
SliderTickRate:1

[Events]
//Background and Video events
0,0,"Ring a bell.jpg",0,0
Video,-230,"RingADing.avi"
//Break Periods
//Storyboard Layer 0 (Background)
//Storyboard Layer 1 (Fail)
//Storyboard Layer 2 (Pass)
//Storyboard Layer 3 (Foreground)
//Storyboard Sound Samples

[TimingPoints]
1078,447.761194029851,4,1,1,60,1,0
1078,-111.111111111111,4,1,1,60,0,0
8242,-100,4,1,1,80,0,0
22570,-125,4,1,1,70,0,0
25480,-125,4,1,1,40,0,0
25704,-125,4,1,1,70,0,0
32645,-125,4,1,1,40,0,0
32869,-125,4,1,1,70,0,0
36898,-111.111111111111,4,1,1,70,0,0
43839,-111.111111111111,4,1,1,50,0,0
44063,-111.111111111111,4,1,1,70,0,0
51227,-90.9090909090909,4,1,1,80,0,1
65555,-100,4,1,1,80,0,1
66675,-90.9090909090909,4,1,1,80,0,1
69137,-100,4,1,1,70,0,0
83466,-125,4,1,1,40,0,0

[Colours]
Combo1 : 0,166,255
Combo2 : 255,128,192
Combo3 : 40,255,255
Combo4 : 232,88,252

[HitObjects]
156,72,1078,6,0,L|188:148,1,76.4999976654053,2|0,0:2|0:0,0:0:0:0:
168,176,1413,2,0,L|204:256,1,76.4999976654053,2|0,0:2|0:0,0:0:0:0:
232,264,1749,2,0,P|262:272|314:260,1,76.4999976654053,2|0,0:2|0:0,0:0:0:0:
368,216,2197,1,2,0:2:0:0:
440,196,2421,1,2,0:2:0:0:
364,184,2645,1,2,0:2:0:0:
312,128,2869,2,0,L|290:54,1,76.4999976654053,2|0,0:2|0:0,0:0:0:0:
253,55,3204,2,0,L|229:135,1,76.4999976654053,2|0,0:2|0:0,0:0:0:0:
200,152,3540,2,0,P|172:232|208:324,1,152.999995330811,2|0,0:2|0:0,0:0:0:0:
336,340,4436,1,2,0:2:0:0:
336,340,4660,6,0,P|359:281|352:224,1,114.749996498108,2|0,0:2|0:0,0:0:0:0:
336,196,5107,2,0,B|256:228|176:200,1,152.999995330811,2|0,0:2|0:0,0:0:0:0:
120,160,5779,1,2,0:2:0:0:
80,96,6003,1,2,0:2:0:0:
80,172,6227,1,2,0:2:0:0:
40,320,6675,5,8,0:0:0:0:
112,348,6898,1,2,0:0:0:0:
176,308,7122,1,8,0:0:0:0:
176,308,7234,1,8,0:0:0:0:
176,308,7346,1,8,0:0:0:0:
324,352,7794,1,2,0:2:0:0:
452,244,8242,6,0,L|452:132,1,85,4|0,0:0|0:0,0:0:0:0:
372,88,8689,2,0,L|372:172,1,85,8|0,0:0|0:0,0:0:0:0:
316,236,9137,1,2,0:0:0:0:
288,316,9361,1,0,0:0:0:0:
268,232,9585,2,0,P|280:184|268:124,1,85,8|0,0:0|0:0,0:0:0:0:
172,72,10033,6,0,L|108:128,1,85,2|0,0:0|0:0,0:0:0:0:
112,232,10480,2,0,L|184:172,1,85,8|0,0:0|0:0,0:0:0:0:
276,208,10928,2,0,L|206:267,1,85,2|0,0:0|0:0,0:0:0:0:
140,312,11376,1,8,0:0:0:0:
64,352,11600,1,8,0:0:0:0:
64,352,11712,1,8,0:0:0:0:
64,352,11824,5,2,0:0:0:0:
8,288,12048,1,0,0:0:0:0:
64,224,12272,1,8,0:0:0:0:
16,152,12495,1,0,0:0:0:0:
84,100,12719,2,0,L|176:100,1,85,2|0,0:0|0:0,0:0:0:0:
229,160,13167,1,8,0:0:0:0:
288,100,13391,1,0,0:0:0:0:
348,160,13615,5,2,0:0:0:0:
424,120,13839,1,0,0:0:0:0:
496,168,14063,1,8,0:0:0:0:
488,336,14510,1,2,0:0:0:0:
412,372,14734,1,0,0:0:0:0:
340,328,14958,1,8,0:0:0:0:
172,280,15406,6,0,L|72:280,1,85,4|0,0:0|0:0,0:0:0:0:
172,208,15854,2,0,L|76:208,1,85,8|0,0:0|0:0,0:0:0:0:
92,124,16301,1,2,0:0:0:0:
116,44,16525,1,0,0:0:0:0:
144,124,16749,2,0,P|200:136|256:104,1,85,8|0,0:0|0:0,0:0:0:0:
300,88,17197,6,0,P|300:136|324:192,1,85,2|0,0:0|0:0,0:0:0:0:
376,76,17645,2,0,P|376:124|400:180,1,85,8|0,0:0|0:0,0:0:0:0:
452,64,18092,2,0,P|452:112|476:168,1,85,2|0,0:0|0:0,0:0:0:0:
500,224,18540,1,8,0:0:0:0:
476,304,18764,1,8,0:0:0:0:
476,304,18876,1,8,0:0:0:0:
476,304,18988,5,2,0:0:0:0:
400,268,19212,1,0,0:0:0:0:
324,308,19436,1,8,0:0:0:0:
240,320,19660,1,0,0:0:0:0:
160,292,19883,1,2,0:0:0:0:
136,152,20331,1,8,0:0:0:0:
136,152,20443,1,8,0:0:0:0:
136,152,20555,1,2,0:0:0:0:
200,96,20779,6,0,L|296:56,1,85,4|0,0:2|0:0,0:0:0:0:
268,148,21227,2,0,L|364:108,1,85,2|0,0:2|0:0,0:0:0:0:
420,156,21675,1,2,0:2:0:0:
360,215,21898,2,0,L|316:215,2,42.5,0|8|2,0:0|0:0|0:0,0:0:0:0:
420,275,22346,1,8,0:0:0:0:
420,275,22458,1,8,0:0:0:0:
420,275,22570,6,0,P|396:304|364:316,1,68,4|0,0:0|0:0,0:0:0:0:
304,268,23018,2,0,P|264:260|232:268,1,68,8|0,0:0|0:0,0:0:0:0:
184,328,23466,2,0,P|135:318|99:294,1,68,8|0,0:0|0:0,0:0:0:0:
80,240,23913,2,0,P|92:200|84:152,1,68,8|0,0:0|0:0,0:0:0:0:
132,104,24361,6,0,P|168:116|224:108,1,68,8|0,0:0|0:0,0:0:0:0:
268,72,24809,2,0,P|304:64|352:80,1,68,8|0,0:0|0:0,0:0:0:0:
404,112,25257,1,8,0:0:0:0:
436,188,25480,1,8,0:0:0:0:
372,140,25704,1,8,0:0:0:0:
300,268,26152,6,0,P|256:280|208:276,1,68,8|0,0:0|0:0,0:0:0:0:
180,220,26600,2,0,P|152:188|112:172,1,68,8|0,0:0|0:0,0:0:0:0:
48,196,27048,2,0,P|28:236|32:280,1,68,8|0,0:0|0:0,0:0:0:0:
84,316,27495,2,0,P|120:328|160:320,1,68,8|0,0:0|0:0,0:0:0:0:
216,280,27943,6,0,P|252:276|296:288,1,68,8|0,0:0|0:0,0:0:0:0:
352,328,28391,2,0,P|396:328|428:312,1,68,8|0,0:0|0:0,0:0:0:0:
456,248,28839,1,8,0:0:0:0:
436,168,29063,1,8,0:0:0:0:
436,168,29175,1,8,0:0:0:0:
436,168,29286,1,8,0:0:0:0:
412,244,29510,1,8,0:3:0:0:
340,208,29734,6,0,L|268:200,1,68,4|0,0:0|0:0,0:0:0:0:
224,132,30182,2,0,L|148:164,1,68,8|0,0:0|0:0,0:0:0:0:
128,232,30630,2,0,L|108:322,1,68,8|0,0:0|0:0,0:0:0:0:
36,328,31078,2,0,L|16:248,1,68,8|0,0:0|0:0,0:0:0:0:
36,184,31525,6,0,L|92:128,1,68,8|0,0:0|0:0,0:0:0:0:
108,56,31973,2,0,L|196:68,1,68,8|0,0:0|0:0,0:0:0:0:
236,120,32421,1,8,0:0:0:0:
304,160,32645,1,8,0:0:0:0:
224,164,32869,1,8,0:0:0:0:
164,284,33316,6,0,L|240:304,1,68,8|0,0:0|0:0,0:0:0:0:
284,364,33764,2,0,L|344:332,1,68,8|0,0:0|0:0,0:0:0:0:
412,284,34212,2,0,P|436:216|428:140,1,136,8|2,0:0|0:0,0:0:0:0:
352,132,34883,6,0,L|324:208,1,68,8|0,0:0|0:0,0:0:0:0:
312,276,35331,1,8,0:0:0:0:
196,280,35555,1,8,0:0:0:0:
196,280,36003,1,8,0:0:0:0:
136,220,36227,2,0,L|80:224,2,34,8|8|8,0:0|0:0|0:0,0:0:0:0:
184,156,36675,1,8,0:3:0:0:
184,156,36786,1,8,0:3:0:0:
184,156,36898,6,0,P|196:100|192:76,1,76.4999976654053,4|0,0:0|0:0,0:0:0:0:
156,4,37346,1,8,0:0:0:0:
72,4,37570,1,2,0:0:0:0:
24,72,37794,2,0,B|12:112|12:112|24:152,1,76.4999976654053,8|2,0:0|0:0,0:0:0:0:
81,205,38242,2,0,B|93:245|93:245|81:285,1,76.4999976654053,8|2,0:0|0:0,0:0:0:0:
28,344,38689,5,8,0:0:0:0:
108,364,38913,2,0,P|152:372|204:364,2,76.4999976654053,2|8|2,0:0|0:0|0:0,0:0:0:0:
156,292,39585,1,8,0:0:0:0:
184,212,39809,1,2,0:0:0:0:
212,292,40033,1,8,0:0:0:0:
80,176,40480,6,0,L|80:96,1,76.4999976654053,4|0,0:0|0:0,0:0:0:0:
136,36,40928,1,8,0:0:0:0:
220,36,41152,1,2,0:0:0:0:
284,92,41376,2,0,P|272:136|280:168,1,76.4999976654053,8|2,0:0|0:0,0:0:0:0:
338,225,41824,2,0,P|350:269|342:301,1,76.4999976654053,8|2,0:0|0:0,0:0:0:0:
298,370,42272,5,8,0:0:0:0:
247,303,42495,1,2,0:0:0:0:
188,363,42719,2,0,P|148:371|112:363,1,76.4999976654053,8|2,0:0|0:0,0:0:0:0:
30,349,43167,2,0,B|10:293|42:293|26:237,1,114.749996498108,8|8,0:0|0:0,0:0:0:0:
13,195,43615,2,0,L|-4:147,2,38.2499988327027,8|8|8,0:0|0:0|0:3,0:0:0:0:
104,216,44063,6,0,P|144:160|136:56,1,152.999995330811,4|8,0:0|0:0,0:0:0:0:
76,20,44734,2,0,P|156:48|244:20,1,152.999995330811,2|0,0:2|0:0,0:0:0:0:
312,24,45406,1,8,0:0:0:0:
260,100,45630,2,0,P|240:180|268:256,1,152.999995330811,2|0,0:2|0:0,0:0:0:0:
276,336,46301,1,8,0:0:0:0:
184,352,46525,2,0,P|116:352|48:288,1,152.999995330811,2|0,0:2|0:0,0:0:0:0:
28,212,47197,1,8,0:0:0:0:
120,116,47421,6,0,B|192:132|192:132|280:116,1,152.999995330811,4|0,0:0|0:0,0:0:0:0:
348,68,48092,2,0,B|388:60|388:60|424:68,1,76.4999976654053,8|0,0:0|0:0,0:0:0:0:
480,140,48540,5,2,0:2:0:0:
416,252,48764,1,8,0:0:0:0:
344,144,48988,1,8,0:0:0:0:
280,264,49212,6,0,P|240:276|192:260,1,76.4999976654053,8|2,0:3|0:0,0:0:0:0:
152,196,49660,2,0,L|152:128,2,38.2499988327027,8|8|8,0:0|0:0|0:0,0:0:0:0:
116,280,50107,1,8,0:0:0:0:
92,300,50219,1,8,0:0:0:0:
64,304,50331,1,8,0:0:0:0:
120,80,51227,6,0,L|176:168,1,93.5000028533936,4|0,0:0|0:0,0:0:0:0:
220,168,51563,2,0,L|169:89,1,93.5000028533936,2|0,0:2|0:0,0:0:0:0:
220,96,51898,2,0,L|276:184,1,93.5000028533936,2|0,0:2|0:0,0:0:0:0:
324,252,52346,1,2,0:2:0:0:
296,340,52570,1,8,0:0:0:0:
268,252,52794,1,2,0:2:0:0:
180,284,53018,6,0,L|92:228,1,93.5000028533936,2|0,0:2|0:0,0:0:0:0:
92,184,53354,2,0,L|170:234,1,93.5000028533936,2|0,0:2|0:0,0:0:0:0:
164,184,53689,2,0,L|76:128,1,93.5000028533936,2|0,0:2|0:0,0:0:0:0:
60,44,54137,1,8,0:0:0:0:
200,64,54361,1,8,0:0:0:0:
328,256,54809,6,0,P|268:296|192:288,1,140.25000428009,2|0,0:2|0:0,0:0:0:0:
160,268,55257,2,0,P|180:192|204:264,1,187.000005706787,8|0,0:0|0:0,0:0:0:0:
184,336,55928,1,2,0:2:0:0:
92,336,56152,1,8,0:0:0:0:
36,260,56376,1,2,0:2:0:0:
56,168,56600,6,0,L|160:160,1,93.5000028533936,2|0,0:2|0:0,0:0:0:0:
188,132,56936,2,0,L|296:124,1,93.5000028533936,2|0,0:2|0:0,0:0:0:0:
316,92,57272,1,2,0:2:0:0:
388,148,57495,1,2,0:2:0:0:
388,148,57607,1,8,0:0:0:0:
388,148,57719,1,8,0:0:0:0:
428,232,57943,2,0,L|392:292,3,46.7500014266968,8|2|8|2,0:0|0:2|0:3|0:0,0:0:0:0:
364,296,58391,6,0,P|312:316|268:308,1,93.5000028533936,4|0,0:0|0:0,0:0:0:0:
264,264,58727,2,0,P|310:267|352:248,1,93.5000028533936,2|0,0:2|0:0,0:0:0:0:
348,204,59063,2,0,P|296:224|252:216,1,93.5000028533936,2|0,0:2|0:0,0:0:0:0:
292,132,59510,1,8,0:0:0:0:
212,84,59734,2,0,L|120:104,1,93.5000028533936,8|0,0:0|0:0,0:0:0:0:
68,180,60182,6,0,B|52:224|52:224|56:288,1,93.5000028533936,2|0,0:2|0:0,0:0:0:0:
100,284,60518,2,0,B|97:237|97:237|113:193,1,93.5000028533936,2|0,0:2|0:0,0:0:0:0:
160,200,60854,2,0,B|144:244|144:244|148:308,1,93.5000028533936,2|0,0:2|0:0,0:0:0:0:
224,340,61301,1,8,0:0:0:0:
360,312,61525,1,8,0:0:0:0:
364,108,61973,6,0,P|296:80|224:108,1,140.25000428009,2|0,0:2|0:0,0:0:0:0:
196,124,62421,2,0,P|216:192|249:122,1,187.000005706787,8|0,0:0|0:0,0:0:0:0:
204,48,63092,1,2,0:2:0:0:
116,84,63316,1,8,0:0:0:0:
80,172,63540,1,2,0:2:0:0:
100,264,63764,6,0,P|120:304|164:336,1,93.5000028533936,2|0,0:2|0:2,0:0:0:0:
204,332,64100,2,0,P|240:303|261:262,1,93.5000028533936,2|0,0:2|0:0,0:0:0:0:
260,216,64436,1,2,0:2:0:0:
204,140,64660,1,2,0:2:0:0:
252,60,64883,2,0,L|252:8,2,46.7500014266968,8|8|8,0:0|0:0|0:0,0:0:0:0:
316,132,65331,1,8,0:0:0:0:
360,144,65443,1,8,0:0:0:0:
400,136,65555,6,0,L|372:248,1,85,8|0,0:0|0:0,0:0:0:0:
308,264,66003,2,0,L|333:363,1,85,8|0,0:0|0:0,0:0:0:0:
408,384,66451,1,8,0:0:0:0:
480,324,66675,5,2,0:2:0:0:
480,324,66786,1,8,0:0:0:0:
480,324,66898,1,8,0:0:0:0:
424,248,67122,2,0,L|456:152,1,93.5000028533936,2|0,0:2|0:0,0:0:0:0:
404,80,67570,5,8,0:0:0:0:
296,184,67794,1,8,0:0:0:0:
208,60,68018,1,8,0:0:0:0:
208,60,68130,1,8,0:0:0:0:
208,60,68242,2,0,L|124:192,1,140.25000428009,8|8,0:0|0:0,0:0:0:0:
108,220,68689,2,0,P|147:282|194:257,1,140.25000428009,8|8,0:0|0:0,0:0:0:0:
228,232,69137,6,0,L|316:232,1,85,4|0,0:0|0:0,0:0:0:0:
376,152,69585,2,0,L|288:152,1,85,8|0,0:0|0:0,0:0:0:0:
228,96,70033,1,2,0:0:0:0:
172,32,70257,1,0,0:0:0:0:
184,116,70480,2,0,P|136:124|100:116,1,85,8|0,0:0|0:0,0:0:0:0:
40,176,70928,6,0,L|40:268,1,85,2|0,0:0|0:0,0:0:0:0:
120,324,71376,2,0,L|121:208,1,85,8|0,0:0|0:0,0:0:0:0:
192,192,71824,2,0,P|236:200|276:192,1,85,2|0,0:0|0:0,0:0:0:0:
344,144,72272,1,8,0:0:0:0:
276,92,72495,1,8,0:0:0:0:
276,92,72607,1,8,0:0:0:0:
276,92,72719,5,2,0:0:0:0:
208,44,72943,1,0,0:0:0:0:
147,104,73167,1,8,0:0:0:0:
86,43,73391,1,0,0:0:0:0:
25,103,73615,1,2,0:0:0:0:
25,273,74063,1,8,0:0:0:0:
84,332,74286,1,0,0:0:0:0:
144,271,74510,5,2,0:0:0:0:
204,331,74734,1,0,0:0:0:0:
264,272,74958,1,8,0:0:0:0:
412,184,75406,2,0,L|412:132,3,42.5,2|8|8|8,0:0|0:0|0:0|0:0,0:0:0:0:
412,98,75854,1,8,0:0:0:0:
351,37,76078,1,2,0:0:0:0:
351,37,76189,1,8,0:3:0:0:
351,37,76301,6,0,P|306:59|256:56,1,85,4|0,0:0|0:0,0:0:0:0:
200,120,76749,2,0,P|245:142|295:139,1,85,8|0,0:0|0:0,0:0:0:0:
344,200,77197,1,2,0:0:0:0:
316,280,77421,1,0,0:0:0:0:
388,236,77645,6,0,P|416:196|420:148,1,85,8|0,0:0|0:0,0:0:0:0:
364,96,78092,2,0,B|320:88|320:88|276:100,1,85,2|0,0:0|0:0,0:0:0:0:
220,159,78540,2,0,B|176:167|176:167|132:155,1,85,8|0,0:0|0:0,0:0:0:0:
56,128,78988,2,0,P|56:180|84:224,1,85,2|0,0:0|0:0,0:0:0:0:
128,272,79436,1,8,0:0:0:0:
192,216,79660,1,8,0:0:0:0:
192,216,79772,1,8,0:0:0:0:
192,216,79883,5,2,0:0:0:0:
252,276,80107,1,0,0:0:0:0:
312,215,80331,1,8,0:0:0:0:
372,275,80555,1,0,0:0:0:0:
432,214,80779,1,2,0:0:0:0:
411,48,81227,1,8,0:0:0:0:
350,108,81451,1,0,0:0:0:0:
289,47,81675,5,2,0:0:0:0:
229,106,81898,1,8,0:0:0:0:
168,45,82122,2,0,L|128:64,3,42.5,2|8|8|8,0:0|0:0|0:0|0:3,0:0:0:0:
88,60,82570,2,0,L|56:96,3,42.5,2|8|8|2,0:0|0:0|0:0|0:0,0:0:0:0:
20,108,83018,1,8,0:0:0:0:
48,188,83242,1,8,0:0:0:0:
48,188,83354,1,8,0:0:0:0:
48,188,83466,6,0,L|136:184,1,68,2|0,0:2|0:0,0:0:0:0:
173,242,83913,2,0,L|249:242,1,68,2|0,0:2|0:0,0:0:0:0:
298,184,84361,1,2,0:2:0:0:
379,184,84585,1,2,0:2:0:0:
436,241,84809,1,2,0:2:0:0:
