osu file format v14

[General]
AudioFilename: Ring! Dong! Dang!.mp3
AudioLeadIn: 0
PreviewTime: 50499
Countdown: 0
SampleSet: Normal
StackLeniency: 0.7
Mode: 0
LetterboxInBreaks: 0
WidescreenStoryboard: 1

[Editor]
Bookmarks: 60854
DistanceSpacing: 1
BeatDivisor: 4
GridSize: 4
TimelineZoom: 1.200001

[Metadata]
Title:Ring Dong Dang!
TitleUnicode:Ring Dong Dang!
Artist:Hirokawa Nanase, Hiiragi Yuka, R!N
ArtistUnicode:廣川奈々聖、柊優花、R!N
Creator:Lanturn
Version:Easy Mode
Source:Girls Mode 4 スター☆スタイリスト
Tags:ガールズモード Star Stylist Styling Savvy Nintendo Presents New Boutique 3DS Switch Super Smash Bros. Brothers Ultimate 大乱闘スマッシュブラザーズ SPECIAL a Ding The World Standard Rosie Mayfield Yolanda Artemisia Alina Golding Japanese Video Game Cut from わーすた Wasuta RIN 桜野やよい 青紫月子 黄梨蛍 Sakurano Yayoi Aomurasaki Tsukiko Kinashi Hotaru Ring! Dong!
BeatmapID:1874271
BeatmapSetID:897000

[Difficulty]
HPDrainRate:1
CircleSize:3
OverallDifficulty:2
ApproachRate:3
SliderMultiplier:1.1
SliderTickRate:1

[Events]
//Background and Video events
0,0,"Ring a bell.jpg",0,0
Video,-230,"RingADing.avi"
//Break Periods
//Storyboard Layer 0 (Background)
//Storyboard Layer 1 (Fail)
//Storyboard Layer 2 (Pass)
//Storyboard Layer 3 (Foreground)
//Storyboard Sound Samples

[TimingPoints]
1078,447.761194029851,4,1,1,60,1,0
8242,-100,4,1,1,80,0,0
22570,-100,4,1,1,70,0,0
43839,-100,4,1,1,50,0,0
44063,-100,4,1,1,70,0,0
51227,-100,4,1,1,80,0,1
69137,-100,4,1,1,70,0,0
83466,-100,4,1,1,40,0,0

[Colours]
Combo1 : 0,166,255
Combo2 : 255,128,192
Combo3 : 40,255,255
Combo4 : 232,88,252

[HitObjects]
308,300,1078,6,0,B|384:328|384:248|464:276,2,165,2|2|2,0:2|0:2|0:2,0:0:0:0:
204,300,2869,2,0,B|128:328|128:248|48:276,2,165,2|2|0,0:2|0:2|0:0,0:0:0:0:
256,204,4660,1,2,0:2:0:0:
180,124,5107,2,0,P|256:58|332:124,1,220,2|2,0:2|0:2,0:0:0:0:
348,232,6451,2,0,P|404:288|452:292,2,110,8|2|8,0:0|0:0|0:0,0:0:0:0:
256,296,7794,1,2,0:2:0:0:
172,228,8242,6,0,P|136:176|132:120,1,110,4|8,0:0|0:0,0:0:0:0:
200,40,9137,1,2,0:0:0:0:
312,40,9585,1,8,0:0:0:0:
382,130,10033,2,0,P|373:184|340:228,1,110,2|8,0:0|0:0,0:0:0:0:
256,160,10928,2,0,L|256:36,1,110,2|8,0:0|0:0,0:0:0:0:
156,92,11824,6,0,B|156:240|156:240|216:316,1,220,2|2,0:0|0:0,0:0:0:0:
311,296,13167,2,0,B|356:240|356:240|356:92,1,220,8|8,0:0|0:0,0:0:0:0:
256,48,14510,1,2,0:0:0:0:
156,92,14958,1,8,0:0:0:0:
112,192,15406,6,0,B|132:244|132:244|172:292,1,110,4|8,0:0|0:0,0:0:0:0:
256,352,16301,1,2,0:0:0:0:
346,285,16749,1,8,0:0:0:0:
371,176,17197,2,0,P|360:124|312:99,1,110,2|8,0:0|0:0,0:0:0:0:
199,99,18092,2,0,P|151:124|140:176,1,110,2|8,0:0|0:0,0:0:0:0:
32,196,18988,6,0,P|108:280|220:251,1,220,2|2,0:0|0:0,0:0:0:0:
307,264,20331,2,0,P|412:277|480:196,1,220,8|2,0:0|0:2,0:0:0:0:
400,120,21675,1,2,0:2:0:0:
300,168,22122,1,2,0:0:0:0:
212,100,22570,6,0,P|156:88|104:100,1,110,4|8,0:0|0:0,0:0:0:0:
105,209,23466,2,0,P|158:220|211:208,1,110,8|8,0:0|0:0,0:0:0:0:
308,156,24361,2,0,P|361:144|414:156,1,110,8|8,0:0|0:0,0:0:0:0:
416,268,25257,1,8,0:0:0:0:
308,272,25704,1,8,0:0:0:0:
200,256,26152,6,0,L|124:341,1,110,8|8,0:0|0:0,0:0:0:0:
76,240,27048,2,0,L|149:157,1,110,8|8,0:0|0:0,0:0:0:0:
112,52,27943,2,0,L|36:137,1,110,8|8,0:0|0:0,0:0:0:0:
38,250,28839,1,8,0:0:0:0:
100,340,29286,1,8,0:0:0:0:
192,280,29734,6,0,P|220:316|288:336,1,110,4|8,0:0|0:0,0:0:0:0:
284,228,30630,2,0,P|326:245|395:228,1,110,8|8,0:0|0:0,0:0:0:0:
340,136,31525,2,0,P|385:129|436:80,1,110,8|8,0:0|0:0,0:0:0:0:
344,24,32421,1,8,0:0:0:0:
256,88,32869,1,8,0:0:0:0:
204,184,33316,6,0,P|140:200|88:180,1,110,8|8,0:0|0:0,0:0:0:0:
84,80,34212,2,0,B|136:72|152:40|152:40|168:72|220:80,2,165,8|8|8,0:0|0:0|0:0,0:0:0:0:
28,176,36003,1,8,0:0:0:0:
76,276,36451,1,8,0:0:0:0:
176,324,36898,6,0,L|280:268,1,110,4|8,0:0|0:0,0:0:0:0:
288,164,37794,2,0,L|191:216,1,110,8|8,0:0|0:0,0:0:0:0:
192,108,38689,2,0,L|296:52,1,110,8|8,0:0|0:0,0:0:0:0:
396,40,39585,1,8,0:0:0:0:
476,116,40033,1,8,0:0:0:0:
452,224,40480,6,0,P|416:256|336:256,1,110,4|8,0:0|0:0,0:0:0:0:
304,164,41376,2,0,P|256:140|208:164,1,110,8|8,0:0|0:0,0:0:0:0:
155,263,42272,2,0,P|101:258|60:224,1,110,8|8,0:0|0:0,0:0:0:0:
28,120,43167,2,0,B|20:76|20:76|32:16,2,82.5,8|8|8,0:0|0:0|0:3,0:0:0:0:
68,160,44063,6,0,B|132:188|160:124|228:160,1,165,4|2,0:0|0:2,0:0:0:0:
308,304,45406,2,0,L|232:304,1,55,0|2,0:0|0:2,0:0:0:0:
144,312,46078,2,0,P|88:324|36:308,2,110,2|2|0,0:2|0:2|0:0,0:0:0:0:
92,216,47421,6,0,B|80:168|80:168|116:120|116:120|96:56,1,165,4|8,0:0|0:0,0:0:0:0:
208,88,48540,2,0,L|229:153,2,55,2|8|8,0:2|0:0|0:0,0:0:0:0:
240,44,49212,2,0,B|304:28|360:84|360:84|412:24|488:56,1,275,8|8,0:3|0:0,0:0:0:0:
480,276,51227,6,0,L|436:360,2,82.5,4|2|2,0:0|0:2|0:2,0:0:0:0:
444,172,52346,2,0,L|380:172,1,55,2|8,0:2|0:0,0:0:0:0:
326,261,53018,2,0,L|286:337,2,82.5,2|2|2,0:2|0:2|0:2,0:0:0:0:
240,192,54137,2,0,L|176:192,1,55,8|8,0:0|0:0,0:0:0:0:
88,244,54809,5,2,0:2:0:0:
76,136,55257,2,0,P|112:76|152:92,1,110,8|0,0:0|0:0,0:0:0:0:
164,188,56152,1,8,0:0:0:0:
96,272,56600,2,0,P|44:280|12:268,2,82.5,2|2|2,0:2|0:2|0:2,0:0:0:0:
144,244,57495,2,0,P|212:232|268:244,1,110,2|8,0:2|0:0,0:0:0:0:
348,292,58391,6,0,P|332:344|304:376,2,82.5,4|2|2,0:0|0:2|0:2,0:0:0:0:
344,180,59510,2,0,L|344:116,1,55,8|8,0:0|0:0,0:0:0:0:
264,48,60182,2,0,P|216:32|168:44,2,82.5,2|2|2,0:2|0:2|0:2,0:0:0:0:
356,112,61301,2,0,L|404:156,1,55,8|8,0:0|0:0,0:0:0:0:
368,256,61973,5,2,0:2:0:0:
268,300,62421,2,0,P|213:299|196:247,1,110,8|0,0:0|0:0,0:0:0:0:
288,192,63316,1,8,0:0:0:0:
396,216,63764,2,0,P|416:252|412:308,2,82.5,2|2|2,0:2|0:2|0:2,0:0:0:0:
352,180,64660,2,0,P|304:196|232:180,1,110,2|8,0:2|0:0,0:0:0:0:
152,128,65555,6,0,L|100:8,2,110,8|8|8,0:0|0:0|0:0,0:0:0:0:
180,236,66898,2,0,L|144:280,1,55,8|2,0:0|0:2,0:0:0:0:
60,348,67570,2,0,P|36:271|80:192,1,165,8|8,0:0|0:0,0:0:0:0:
168,148,68689,1,8,0:0:0:0:
228,240,69137,6,0,P|284:252|340:232,1,110,4|8,0:0|0:0,0:0:0:0:
435,195,70033,1,2,0:0:0:0:
436,86,70480,1,8,0:0:0:0:
333,46,70928,2,0,P|280:30|227:42,1,110,2|8,0:0|0:0,0:0:0:0:
136,105,71824,2,0,L|102:223,1,110,2|8,0:0|0:0,0:0:0:0:
191,279,72719,6,0,P|240:293|301:281,2,110,2|8|2,0:0|0:0|0:0,0:0:0:0:
193,168,74063,2,0,P|246:157|299:171,2,110,8|2|8,0:0|0:0|0:0,0:0:0:0:
97,222,75406,1,2,0:0:0:0:
25,138,75854,1,8,0:0:0:0:
72,39,76301,6,0,P|126:31|176:52,1,110,4|8,0:0|0:0,0:0:0:0:
202,160,77197,1,2,0:0:0:0:
310,160,77645,1,8,0:0:0:0:
335,52,78092,2,0,P|385:31|439:39,1,110,2|8,0:0|0:0,0:0:0:0:
494,134,78988,2,0,L|434:236,1,110,2|8,0:0|0:0,0:0:0:0:
342,174,79883,6,0,L|342:54,2,110,2|8|2,0:0|0:0|0:0,0:0:0:0:
256,244,81227,2,0,L|256:376,2,110,8|2|2,0:0|0:0|0:0,0:0:0:0:
220,140,82570,1,2,0:0:0:0:
108,140,83018,1,8,0:0:0:0:
60,240,83466,6,0,P|68:292|132:328,1,110,2|2,0:2|0:2,0:0:0:0:
216,292,84361,1,2,0:2:0:0:
256,192,84809,1,2,0:2:0:0:
