osu file format v5

[General]
AudioFilename: The Least 100 sec (Hirofumi Sasaki).mp3
AudioLeadIn: 1004
PreviewTime: -1
Countdown: 1
SampleSet: Normal
StackLeniency: 0.7
Mode: 0
EditorBookmarks: 430,14521,53643

[Metadata]
Title:The Least 100 sec
Artist:Hirofumi Sasaki
Creator:Kasada
Version:Normal

[Difficulty]
HPDrainRate:3
CircleSize:6
OverallDifficulty:4
SliderMultiplier:1
SliderTickRate:1

[Events]
//Background and Video events
//Break Periods
2,46550,52323
//Storyboard Layer 0 (Background)
//Storyboard Layer 1 (Failing)
//Storyboard Layer 2 (Passing)
//Storyboard Layer 3 (Foreground)
//Storyboard Sound Samples
//Background Colour Transformations
3,100,163,162,255

[TimingPoints]
885,227.272727272727,4,1,0,80
16510,227.272727272727,4,1,0,80
20544,227.272727272727,4,1,0,80
21964,227.272727272727,4,1,0,100
33611,227.272727272727,4,1,0,80
40880,229.069230769231,4,1,0,80
46350,227.935167955974,4,1,0,100
71850,227.272727272727,4,1,0,100

[HitObjects]
40,40,885,1,0
112,40,1225,1,0
184,40,1566,1,0
288,40,2021,2,0,B|392:40,2,100
288,88,2703,5,0
240,88,2930,1,0
192,88,3157,1,0
144,88,3384,1,0
96,88,3612,1,0
96,136,3839,1,0
144,136,4066,1,0
192,136,4294,1,0
240,136,4521,6,0,B|240:208,3,50
288,184,5089,1,0
336,184,5316,1,0
328,232,5544,1,0
320,280,5771,1,0
272,280,5998,2,0,B|272:336,2,50
248,280,6339,5,0
200,280,6566,1,0
152,280,6794,1,0
104,280,7021,1,0
64,248,7248,1,0
64,200,7475,1,4
472,344,8157,5,0
400,344,8497,1,0
328,344,8838,1,0
224,344,9293,2,0,B|120:344,2,100
224,296,9975,5,0
272,296,10202,1,0
320,296,10429,1,0
368,296,10656,1,0
416,296,10884,1,0
416,248,11111,1,0
368,248,11338,1,0
320,248,11566,1,0
272,248,11793,6,0,B|272:176,3,50
224,200,12361,1,0
176,200,12588,1,0
184,152,12816,1,0
192,104,13043,1,0
240,104,13270,2,0,B|240:48,2,50
264,104,13611,5,0
312,104,13838,1,0
360,104,14066,1,0
408,104,14293,1,0
448,136,14520,1,0
448,184,14747,1,4
448,336,15430,6,0,B|448:280,2,50
424,336,15771,2,0,B|424:280,3,50
184,336,17248,5,0
184,288,17475,2,0,B|184:232,1,50
184,184,17816,2,0,B|184:256,1,50
40,80,19123,6,0,B|40:136,2,50
64,80,19464,2,0,B|64:24,2,50
88,80,19805,2,0,B|88:136,2,50
112,80,20146,2,0,B|112:24,2,50
152,80,20544,5,0
216,120,20884,1,0
280,160,21225,1,0
216,200,21566,1,0
144,256,21964,5,0
112,288,22191,2,0,B|224:288,1,100
264,288,22645,2,0,B|376:288,1,100
416,288,23100,2,0,B|416:184,1,100
416,136,23554,2,0,B|416:24,1,100
336,40,24123,1,0
264,40,24463,1,0
160,48,24918,2,0,B|160:104,4,50
160,152,25827,2,0,B|200:192,20,50
128,192,28327,5,0
128,192,28441,1,0
104,232,28668,1,0
256,192,29123,12,0,29918
32,56,30373,5,0
32,104,30600,1,0
80,104,30827,1,0
128,104,31054,1,0
128,104,31168,1,0
128,224,31736,1,0
200,224,32077,2,0,B|256:224,3,50
256,192,32645,12,0,33157
480,32,33611,1,0
408,96,34065,1,0
328,160,34520,1,0
248,216,34974,1,0
168,272,35429,1,0
80,320,35883,1,0
80,216,36338,1,0
80,112,36792,1,0
176,112,37247,2,0,B|328:112,1,150
88,288,38951,5,0
88,288,39065,1,0
160,288,39406,1,0
256,192,41338,6,0,B|256:120,3,50
256,192,41796,6,0,B|312:192,3,50
256,192,42254,6,0,B|256:256,3,50
256,192,42712,6,0,B|192:192,2,50
256,192,43056,6,0,B|256:128,3,50
256,192,43514,6,0,B|312:192,3,50
256,192,43972,6,0,B|256:248,5,50
304,192,44774,1,0
304,192,44888,1,0
352,192,45117,1,0
352,192,45232,1,0
400,192,45461,1,0
400,192,45575,1,0
400,240,45804,1,0
400,240,45919,1,0
352,240,46148,1,0
304,240,46350,1,0
48,40,53643,5,0
120,40,53985,1,0
192,40,54327,1,0
264,40,54669,1,0
336,40,55011,1,0
408,40,55353,1,0
456,96,55695,1,0
376,96,56037,1,0
304,96,56379,1,0
256,96,56607,1,0
208,96,56835,1,0
160,96,57062,1,0
112,96,57290,6,0,B|112:304,1,200
208,296,58202,2,0,B|416:296,1,200
408,192,59114,2,0,B|264:40,1,200
192,112,60026,2,0,B|128:208,2,100
272,168,60937,6,0,B|440:304,1,200
328,296,61849,2,0,B|208:296,2,100
272,208,62761,2,0,B|160:208,1,100
168,160,63217,2,0,B|168:56,1,100
216,56,63673,2,0,B|328:56,1,100
320,104,64128,2,0,B|320:160,4,50
120,104,65496,5,0
216,104,65952,1,0
216,200,66408,1,0
112,200,66864,1,0
112,248,67092,1,0
160,248,67320,1,0
160,296,67548,1,0
208,296,67776,1,0
256,296,68003,1,0
256,248,68231,1,0
256,96,69143,5,0
272,192,69599,1,0
184,240,70055,1,0
200,192,70283,1,0
216,144,70511,1,0
184,104,70739,1,0
160,144,70966,1,0
112,152,71194,1,0
104,104,71422,1,0
56,88,71650,1,0
40,40,71850,5,0
112,40,72190,1,0
184,40,72531,1,0
288,40,72986,2,0,B|392:40,2,100
288,88,73668,5,0
240,88,73895,1,0
192,88,74122,1,0
144,88,74349,1,0
96,88,74577,1,0
96,136,74804,1,0
144,136,75031,1,0
192,136,75259,1,0
240,136,75486,6,0,B|240:208,3,50
288,184,76054,1,0
336,184,76281,1,0
328,232,76509,1,0
320,280,76736,1,0
272,280,76963,2,0,B|272:336,2,50
248,280,77304,5,0
200,280,77531,1,0
152,280,77759,1,0
104,280,77986,1,0
64,248,78213,1,0
64,200,78440,1,4
136,72,79122,6,0,B|80:72,2,50
136,72,79463,6,0,B|136:136,2,50
160,72,79804,1,0
256,72,80259,1,4
408,72,80940,1,0
408,120,81168,2,0,B|408:184,1,50
408,192,81509,2,0,B|408:248,1,50
344,320,81963,6,0,B|400:320,7,50
320,320,83100,5,0
248,328,83440,1,0
184,288,83781,1,0
168,216,84122,1,0
200,144,84463,1,4
264,112,84804,1,0
336,120,85145,1,4
384,176,85486,5,0
256,192,85713,12,0,86849
432,56,87304,1,0
432,128,87645,1,0
432,200,87986,1,0
432,296,88440,2,0,B|376:296,4,50
336,296,89349,2,0,B|296:256,20,50
336,296,91849,1,4
256,192,93440,12,4,96054
