osu file format v5

[General]
AudioFilename: The Least 100 sec (Hirofumi Sasaki).mp3
AudioLeadIn: 1004
PreviewTime: -1
Countdown: 1
SampleSet: Normal
StackLeniency: 0.7
Mode: 0
EditorBookmarks: 430,14521,53643

[Metadata]
Title:The Least 100 sec
Artist:Hirofumi Sasaki
Creator:Kasada
Version:Insane
Source:
Tags:

[Difficulty]
HPDrainRate:4
CircleSize:6
OverallDifficulty:4
SliderMultiplier:1
SliderTickRate:1

[Events]
//Background and Video events
//Break Periods
2,46550,52323
//Storyboard Layer 0 (Background)
//Storyboard Layer 1 (Failing)
//Storyboard Layer 2 (Passing)
//Storyboard Layer 3 (Foreground)
//Storyboard Sound Samples
//Background Colour Transformations
3,100,163,162,255

[TimingPoints]
885,227.272727272727,4,1,0,80
16510,227.272727272727,4,1,0,80
20544,227.272727272727,4,1,0,80
21964,227.272727272727,4,1,0,100
33611,227.272727272727,4,1,0,80
40880,229.069230769231,4,1,0,80
46350,227.935167955974,4,1,0,100
71850,227.272727272727,4,1,0,100

[HitObjects]
48,56,885,1,0
128,56,1112,1,0
128,56,1225,1,0
176,56,1452,1,0
176,56,1566,1,0
272,56,2021,2,0,B|272:160,2,100
320,56,2703,5,0
336,72,2816,1,0
344,96,2930,1,0
344,120,3044,1,0
336,144,3157,1,0
320,160,3271,1,0
296,176,3384,1,0
272,176,3498,1,0
248,168,3612,1,0
232,152,3725,1,0
216,128,3839,1,0
192,128,3953,1,0
168,144,4066,1,0
144,160,4180,1,0
128,176,4294,1,0
112,192,4407,1,0
96,208,4521,6,0,B|32:208,3,50
48,256,5089,1,0
80,296,5316,1,0
120,328,5544,1,0
168,328,5771,1,0
216,328,5998,2,0,B|272:328,2,50
232,304,6339,5,0
248,280,6453,1,0
264,256,6566,1,0
288,272,6680,1,0
304,248,6794,1,0
320,224,6907,1,0
336,200,7021,1,0
312,184,7134,1,0
328,160,7248,2,0,B|352:128,2,37.5
328,160,7504,1,0
464,328,7930,5,4
464,328,8157,5,0
384,328,8407,1,0
384,328,8520,1,0
336,328,8725,1,0
336,328,8839,1,0
240,328,9316,2,0,B|240:224,2,100
192,328,9998,5,0
176,312,10111,1,0
168,288,10225,1,0
168,264,10339,1,0
176,240,10452,1,0
192,224,10566,1,0
216,208,10679,1,0
240,208,10793,1,0
264,216,10907,1,0
280,232,11020,1,0
296,256,11134,1,0
320,256,11248,1,0
344,240,11361,1,0
368,224,11475,1,0
384,208,11589,1,0
400,192,11702,1,0
416,176,11816,6,0,B|480:176,3,50
464,128,12384,1,0
432,88,12611,1,0
392,56,12839,1,0
344,56,13066,1,0
296,56,13293,2,0,B|240:56,2,50
280,80,13634,5,0
264,104,13748,1,0
248,128,13861,1,0
224,112,13975,1,0
208,136,14089,1,0
192,160,14202,1,0
176,184,14316,1,0
200,200,14429,1,0
184,224,14543,2,0,B|160:256,2,37.5
184,224,14799,1,0
48,40,15430,5,0
64,64,15544,1,0
80,88,15657,1,0
96,112,15771,1,0
112,136,15884,1,0
128,160,15998,1,0
144,184,16112,1,0
56,184,16509,1,0
56,208,16623,1,0
56,232,16737,1,0
56,256,16850,1,0
56,280,16964,1,0
72,296,17078,1,0
96,304,17191,1,0
120,312,17305,5,0
168,312,17532,1,0
168,312,17646,1,0
216,312,17873,1,0
216,312,17987,1,0
288,312,18328,5,0
312,304,18441,1,0
328,288,18555,1,0
328,264,18669,1,0
328,240,18782,1,0
328,216,18896,1,0
328,192,19009,1,0
328,168,19123,2,0,B|328:104,2,50
328,168,19464,2,0,B|384:168,2,50
328,168,19805,2,0,B|256:168,2,50
328,168,20146,2,0,B|328:224,2,50
328,128,20544,5,0
328,104,20657,1,0
328,80,20771,1,0
328,56,20884,1,0
248,56,21225,1,0
248,80,21339,1,0
248,104,21453,1,0
248,128,21566,1,0
176,128,21964,5,0
152,168,22191,1,0
136,184,22305,1,0
120,208,22419,1,0
112,232,22532,1,0
120,256,22646,1,0
128,280,22760,1,0
144,296,22873,1,0
240,296,23327,2,4,B|256:296,2,12.5
328,296,23782,5,0
328,200,24123,1,0
328,112,24463,1,0
240,112,24918,5,0
216,112,25032,1,0
192,112,25145,1,0
168,120,25259,1,0
144,128,25373,1,0
112,224,25827,5,0
112,248,25941,1,0
120,272,26054,1,0
136,296,26168,1,0
160,304,26282,1,0
184,312,26395,1,0
208,312,26509,1,0
232,312,26623,1,0
256,312,26736,1,0
280,312,26850,1,0
304,312,26963,1,0
320,296,27077,1,0
336,280,27191,1,0
352,264,27304,1,0
360,240,27418,1,0
360,216,27532,1,0
360,192,27645,1,0
360,168,27759,1,0
360,144,27873,1,0
352,120,27986,1,0
336,96,28100,1,4
288,96,28327,1,4
288,96,28441,1,4
240,96,28668,1,0
256,192,29009,12,4,29691
40,40,29918,5,4
64,80,30145,1,0
88,80,30259,1,0
112,88,30373,1,0
128,104,30486,1,0
144,120,30600,1,0
160,136,30713,1,0
176,152,30827,1,0
224,152,31054,1,0
224,152,31168,1,0
352,152,31736,5,4
360,248,32135,5,0
344,264,32248,1,0
360,280,32362,1,0
376,264,32476,1,0
256,192,32588,12,0,33157
48,192,33611,5,0
144,192,34065,1,0
240,192,34519,1,0
336,192,34974,1,0
432,192,35429,5,0
384,192,35656,1,0
336,192,35883,1,0
288,192,36111,1,0
240,192,36338,1,0
192,192,36565,1,0
144,192,36792,1,0
96,192,37020,1,0
48,192,37247,5,0
112,192,37588,1,0
112,136,37815,1,0
128,112,37929,1,0
152,96,38042,1,0
176,88,38156,1,0
200,88,38270,1,0
224,96,38383,1,0
248,104,38497,1,0
264,120,38610,1,0
280,136,38724,1,0
296,152,38838,1,0
304,176,38951,1,4
360,256,39406,5,4
312,256,39633,1,0
288,256,39747,1,0
264,256,39860,1,0
240,256,39974,1,0
208,256,40116,1,0
176,240,40258,1,0
152,208,40429,1,0
144,168,40599,1,0
144,136,40741,1,0
152,104,40880,1,4
224,32,41338,5,0
248,32,41452,1,0
272,32,41567,1,0
296,32,41681,1,0
320,32,41796,1,0
344,32,41910,1,0
368,32,42025,1,0
392,32,42139,1,0
400,56,42254,1,0
408,80,42368,1,0
408,104,42483,1,0
408,128,42598,1,0
392,144,42712,5,0
368,144,42827,1,0
344,144,42941,1,0
328,120,43056,1,4
312,144,43170,1,0
288,144,43285,1,0
264,144,43399,1,0
248,120,43514,1,4
232,144,43628,1,0
208,144,43743,1,0
184,144,43857,1,0
168,120,43972,1,4
152,144,44086,1,0
136,168,44201,1,0
120,192,44316,1,0
104,216,44430,1,0
96,240,44545,5,0
136,272,44774,1,0
136,272,44888,1,0
184,272,45117,1,0
184,272,45232,1,0
232,272,45461,1,0
232,272,45575,1,0
280,272,45804,1,0
280,272,45919,1,0
328,272,46148,1,0
368,272,46350,1,4
64,136,53643,5,0
112,80,53985,1,0
160,136,54327,1,0
208,80,54669,1,0
248,136,55011,1,0
296,80,55353,1,0
344,136,55695,1,0
400,80,56037,1,0
440,136,56379,1,0
440,136,56607,1,0
440,136,56835,1,0
440,136,57062,1,0
440,184,57290,5,0
392,184,57518,1,0
344,184,57746,1,0
296,184,57974,1,0
264,224,58202,1,0
232,184,58430,1,0
200,224,58658,1,0
168,184,58886,1,0
136,224,59114,1,0
104,184,59342,1,0
72,224,59570,1,0
96,264,59798,1,0
128,296,60026,1,0
168,264,60254,1,0
200,296,60481,1,0
216,280,60595,1,0
232,264,60709,1,0
272,296,60937,5,0
312,264,61165,1,0
352,296,61393,1,0
384,264,61621,1,0
416,296,61849,1,0
432,272,61963,1,0
448,256,62077,1,0
416,216,62305,1,0
384,184,62533,1,0
344,152,62761,1,0
328,168,62875,1,0
312,184,62989,1,0
272,152,63217,1,0
256,136,63331,1,0
240,120,63445,1,0
192,144,63673,5,0
168,160,63787,1,0
152,184,63901,1,0
144,208,64014,1,0
144,232,64128,1,0
152,256,64242,1,0
168,272,64356,1,0
184,288,64470,1,0
208,296,64584,1,0
360,304,65268,5,0
408,304,65496,1,0
432,208,65952,1,0
432,160,66180,1,0
432,56,66636,1,0
384,56,66864,1,0
280,56,67320,5,0
232,56,67547,1,0
184,56,67775,1,0
160,56,67889,1,0
136,56,68003,1,0
88,56,68231,1,0
88,208,68915,1,0
88,256,69143,1,0
184,256,69599,1,0
184,152,70055,5,0
200,136,70169,1,0
224,128,70283,1,0
248,128,70397,1,0
272,136,70511,1,0
296,144,70625,1,0
312,160,70739,1,0
328,176,70853,1,0
344,192,70966,1,0
368,200,71080,1,0
392,200,71194,1,0
416,208,71308,1,0
432,224,71422,1,0
440,248,71536,1,0
448,272,71650,1,0
456,296,71764,1,0
464,328,71849,5,0
392,328,72077,1,0
392,328,72190,1,0
336,328,72417,1,0
336,328,72531,1,0
240,328,72986,2,0,B|240:224,2,100
192,328,73668,5,0
176,312,73781,1,0
168,288,73895,1,0
168,264,74009,1,0
176,240,74122,1,0
192,224,74236,1,0
216,208,74349,1,0
240,208,74463,1,0
264,216,74577,1,0
280,232,74690,1,0
296,256,74804,1,0
320,256,74918,1,0
344,240,75031,1,0
368,224,75145,1,0
384,208,75259,1,0
400,192,75372,1,0
416,176,75486,6,0,B|480:176,3,50
464,128,76054,1,0
432,88,76303,1,0
392,56,76531,1,0
344,56,76758,1,0
296,56,76985,2,0,B|240:56,2,50
280,80,77304,5,0
264,104,77418,1,0
248,128,77531,1,0
224,112,77645,1,0
208,136,77759,1,0
192,160,77872,1,0
176,184,77986,1,0
200,200,78099,1,0
184,224,78213,2,0,B|160:256,2,37.5
184,224,78469,1,0
40,296,78895,5,0
40,336,79122,5,0
64,336,79236,1,0
88,336,79349,1,0
112,336,79463,1,0
136,336,79577,1,0
160,336,79690,1,0
184,336,79804,1,0
256,336,80146,1,0
272,320,80259,1,0
288,304,80373,1,0
288,280,80486,1,0
280,256,80600,1,0
264,232,80714,1,0
248,208,80827,1,0
232,184,80940,5,0
272,152,81168,1,0
272,152,81281,1,0
240,112,81509,1,0
240,112,81622,1,0
168,112,81964,5,0
144,120,82077,1,0
128,136,82191,1,0
112,152,82305,1,0
104,176,82418,1,0
96,200,82532,1,0
96,224,82646,1,0
96,248,82759,1,0
104,272,82873,5,0
120,288,82986,1,0
136,304,83100,1,0
160,312,83213,1,0
184,312,83327,1,0
208,312,83440,1,0
232,304,83554,1,0
256,288,83668,1,0
280,272,83781,1,0
296,256,83895,1,0
312,240,84009,1,0
328,216,84122,5,0
344,192,84236,1,0
352,168,84349,1,0
360,144,84463,1,4
312,128,84804,5,0
288,128,84918,1,0
264,128,85032,1,0
240,128,85145,1,4
160,128,85486,5,0
112,152,85714,1,0
128,168,85827,1,0
144,192,85941,1,0
160,208,86055,1,0
176,224,86168,1,0
200,232,86282,1,0
224,232,86396,5,0
248,224,86509,1,0
272,208,86623,1,0
288,192,86736,1,0
304,176,86850,1,0
320,152,86964,1,0
328,128,87077,1,0
320,104,87190,1,0
304,88,87304,5,0
232,80,87645,5,0
160,104,87986,5,0
152,200,88440,1,0
168,216,88554,1,0
184,232,88668,1,0
200,248,88781,1,0
224,256,88895,1,0
320,280,89349,1,0
344,280,89463,1,0
360,264,89577,1,0
376,248,89690,1,0
392,232,89804,1,0
224,128,90713,6,0,B|224:192,8,50
224,128,91849,1,0
256,192,93554,12,0,93838
256,192,94122,12,0,94463
256,192,94747,12,0,95060
256,192,95315,5,4
256,192,95543,1,4
256,192,95770,1,4
256,192,96111,1,4
