osu file format v13

[General]
AudioFilename: vertex.mp3
AudioLeadIn: 0
PreviewTime: 51517
Countdown: 0
SampleSet: Normal
StackLeniency: 0.7
Mode: 1
LetterboxInBreaks: 0
WidescreenStoryboard: 0

[Editor]
DistanceSpacing: 0.9
BeatDivisor: 4
GridSize: 32
TimelineZoom: 2.6

[Metadata]
Title:VERTeX
TitleUnicode:VERTeX
Artist:Hiro
ArtistUnicode:Hiro
Creator:Kunieda
Version:Muzukashii
Source:maimai ORANGE
Tags:sega maimai
BeatmapID:550397
BeatmapSetID:237644

[Difficulty]
HPDrainRate:5
CircleSize:5
OverallDifficulty:5
ApproachRate:5
SliderMultiplier:1.4
SliderTickRate:1

[Events]
//Background and Video events
0,0,"31526872.jpg",0,0
//Break Periods
//Storyboard Layer 0 (Background)
//Storyboard Layer 1 (Fail)
//Storyboard Layer 2 (Pass)
//Storyboard Layer 3 (Foreground)
//Storyboard Sound Samples

[TimingPoints]
1391,253.164556962025,6,1,0,100,1,0
39365,-125,6,1,0,100,0,0
51517,-111.111111111111,6,1,0,100,0,1
63669,-125,6,1,0,100,0,0
68226,-111.111111111111,6,1,0,100,0,0
84935,-125,6,1,0,100,0,0
91011,-111.111111111111,6,1,0,100,0,0
97087,-111.111111111111,6,1,0,100,0,1
114555,-111.111111111111,6,1,0,100,0,0

[HitObjects]
256,192,1390,5,4,0:0:0:0:
256,192,1770,1,8,0:0:0:0:
256,192,2150,1,0,0:0:0:0:
256,192,2403,1,8,0:0:0:0:
256,192,2909,1,0,0:0:0:0:
256,192,3289,1,8,0:0:0:0:
256,192,3669,1,0,0:0:0:0:
256,192,3922,1,8,0:0:0:0:
256,192,4428,1,0,0:0:0:0:
256,192,4808,1,8,0:0:0:0:
256,192,5188,1,0,0:0:0:0:
256,192,5441,1,8,0:0:0:0:
256,192,5947,1,0,0:0:0:0:
256,192,6327,1,8,0:0:0:0:
256,192,6707,1,0,0:0:0:0:
256,192,6960,1,8,0:0:0:0:
256,192,7213,1,8,0:0:0:0:
256,192,7466,1,0,0:0:0:0:
256,192,7720,1,0,0:0:0:0:
256,192,7973,1,8,0:0:0:0:
256,192,8226,1,0,0:0:0:0:
256,192,8479,1,8,0:0:0:0:
256,192,8985,1,0,0:0:0:0:
256,192,9239,1,0,0:0:0:0:
256,192,9492,1,8,0:0:0:0:
256,192,9745,1,0,0:0:0:0:
256,192,9998,1,8,0:0:0:0:
256,192,10504,1,0,0:0:0:0:
256,192,10758,1,0,0:0:0:0:
256,192,11011,1,8,0:0:0:0:
256,192,11264,1,0,0:0:0:0:
256,192,11517,1,8,0:0:0:0:
256,192,12023,1,4,0:0:0:0:
256,192,12277,1,0,0:0:0:0:
256,192,12530,1,8,0:0:0:0:
256,192,12783,1,0,0:0:0:0:
256,192,13036,1,8,0:0:0:0:
256,192,13289,1,8,0:0:0:0:
256,192,14302,12,0,14808,0:0:0:0:
256,192,15061,5,12,0:0:0:0:
256,192,15188,1,0,0:0:0:0:
256,192,15314,1,8,0:0:0:0:
256,192,15568,1,0,0:0:0:0:
256,192,15821,1,0,0:0:0:0:
256,192,16074,1,8,0:0:0:0:
256,192,16327,1,0,0:0:0:0:
256,192,16580,1,0,0:0:0:0:
256,192,16834,1,8,0:0:0:0:
256,192,16960,1,0,0:0:0:0:
256,192,17087,1,8,0:0:0:0:
256,192,17340,5,8,0:0:0:0:
256,192,17593,1,0,0:0:0:0:
256,192,17846,1,0,0:0:0:0:
256,192,18099,1,0,0:0:0:0:
256,192,18353,1,8,0:0:0:0:
256,192,18479,1,0,0:0:0:0:
256,192,18606,1,8,0:0:0:0:
256,192,18859,1,0,0:0:0:0:
256,192,19112,1,0,0:0:0:0:
256,192,19365,1,8,0:0:0:0:
256,192,19618,1,0,0:0:0:0:
256,192,19872,1,0,0:0:0:0:
256,192,20125,1,0,0:0:0:0:
256,192,20378,1,0,0:0:0:0:
256,192,20631,1,8,0:0:0:0:
256,192,20884,1,0,0:0:0:0:
256,192,21137,1,8,0:0:0:0:
256,192,21390,1,8,0:0:0:0:
256,192,21516,1,0,0:0:0:0:
256,192,21643,1,8,0:0:0:0:
256,192,21897,1,0,0:0:0:0:
256,192,22150,1,0,0:0:0:0:
256,192,22403,1,8,0:0:0:0:
256,192,22656,1,0,0:0:0:0:
256,192,22909,1,8,0:0:0:0:
256,192,23036,1,0,0:0:0:0:
256,192,23163,1,8,0:0:0:0:
256,192,23416,1,0,0:0:0:0:
256,192,23669,1,0,0:0:0:0:
256,192,23922,1,8,0:0:0:0:
256,192,24175,1,0,0:0:0:0:
256,192,24428,1,8,0:0:0:0:
256,192,24555,1,0,0:0:0:0:
256,192,24682,1,8,0:0:0:0:
256,192,24935,1,0,0:0:0:0:
256,192,25188,1,0,0:0:0:0:
256,192,25441,1,8,0:0:0:0:
256,192,25694,1,4,0:0:0:0:
256,192,25821,1,12,0:0:0:0:
256,192,26074,1,0,0:0:0:0:
256,192,26137,1,0,0:0:0:0:
256,192,26201,1,0,0:0:0:0:
256,192,26454,1,12,0:0:0:0:
256,192,26707,1,0,0:0:0:0:
256,192,26770,1,0,0:0:0:0:
256,192,26834,1,8,0:0:0:0:
256,192,27213,1,0,0:0:0:0:
256,192,27466,1,0,0:0:0:0:
256,192,27720,1,0,0:0:0:0:
256,192,27973,1,8,0:0:0:0:
256,192,28226,1,0,0:0:0:0:
256,192,28479,1,8,0:0:0:0:
256,192,28732,1,8,0:0:0:0:
256,192,29239,1,0,0:0:0:0:
256,192,29492,1,8,0:0:0:0:
256,192,29745,1,0,0:0:0:0:
256,192,29998,1,0,0:0:0:0:
256,192,30251,1,0,0:0:0:0:
256,192,30504,1,0,0:0:0:0:
256,192,30758,1,0,0:0:0:0:
256,192,31011,1,8,0:0:0:0:
256,192,31264,1,0,0:0:0:0:
256,192,31517,1,8,0:0:0:0:
256,192,31770,1,8,0:0:0:0:
256,192,32277,1,0,0:0:0:0:
256,192,32530,1,8,0:0:0:0:
256,192,32783,1,4,0:0:0:0:
256,192,33036,1,4,0:0:0:0:
256,192,33289,1,0,0:0:0:0:
256,192,33416,1,0,0:0:0:0:
256,192,33542,1,0,0:0:0:0:
256,192,33796,1,0,0:0:0:0:
256,192,34049,1,8,0:0:0:0:
256,192,34302,1,0,0:0:0:0:
256,192,34555,1,8,0:0:0:0:
256,192,34808,1,8,0:0:0:0:
256,192,35061,1,0,0:0:0:0:
256,192,35315,1,8,0:0:0:0:
256,192,35568,1,0,0:0:0:0:
256,192,35947,1,0,0:0:0:0:
256,192,36074,1,0,0:0:0:0:
256,192,36201,1,8,0:0:0:0:
256,192,36327,1,0,0:0:0:0:
256,192,36580,1,0,0:0:0:0:
256,192,36834,1,0,0:0:0:0:
256,192,37087,1,0,0:0:0:0:
256,192,37340,1,8,0:0:0:0:
256,192,37593,1,0,0:0:0:0:
256,192,37846,1,8,0:0:0:0:
256,192,38099,1,8,0:0:0:0:
256,192,38353,1,8,0:0:0:0:
256,192,38606,1,4,0:0:0:0:
256,192,38859,1,12,0:0:0:0:
256,192,39365,1,0,0:0:0:0:
256,192,39618,1,8,0:0:0:0:
256,192,39872,1,0,0:0:0:0:
256,192,40125,1,8,0:0:0:0:
256,192,40378,1,0,0:0:0:0:
256,192,40631,1,8,0:0:0:0:
256,192,40884,1,0,0:0:0:0:
256,192,41137,1,0,0:0:0:0:
256,192,41390,1,8,0:0:0:0:
256,192,41517,1,0,0:0:0:0:
256,192,41580,1,0,0:0:0:0:
256,192,41644,1,0,0:0:0:0:
256,192,41897,1,8,0:0:0:0:
256,192,42023,1,8,0:0:0:0:
256,192,42150,1,0,0:0:0:0:
256,192,42277,1,8,0:0:0:0:
256,192,42403,1,0,0:0:0:0:
256,192,42656,1,0,0:0:0:0:
256,192,42909,1,8,0:0:0:0:
256,192,43416,1,8,0:0:0:0:
256,192,43669,1,0,0:0:0:0:
256,192,43922,1,0,0:0:0:0:
256,192,44175,1,8,0:0:0:0:
256,192,44428,1,0,0:0:0:0:
256,192,44682,1,4,0:0:0:0:
256,192,44935,1,4,0:0:0:0:
256,192,45188,1,0,0:0:0:0:
256,192,45251,1,0,0:0:0:0:
256,192,45315,1,0,0:0:0:0:
256,192,45441,1,8,0:0:0:0:
256,192,46201,1,8,0:0:0:0:
256,192,46454,1,0,0:0:0:0:
256,192,46707,1,8,0:0:0:0:
256,192,46960,1,0,0:0:0:0:
256,192,47213,1,0,0:0:0:0:
256,192,47466,1,8,0:0:0:0:
256,192,47720,1,0,0:0:0:0:
256,192,47973,1,0,0:0:0:0:
256,192,48226,1,0,0:0:0:0:
256,192,48353,1,8,0:0:0:0:
256,192,48479,1,0,0:0:0:0:
256,192,48732,1,0,0:0:0:0:
256,192,48985,1,8,0:0:0:0:
256,192,49239,1,8,0:0:0:0:
256,192,49492,1,0,0:0:0:0:
256,192,49745,1,0,0:0:0:0:
256,192,49998,1,8,0:0:0:0:
256,192,50125,1,0,0:0:0:0:
256,192,50251,1,8,0:0:0:0:
256,192,50378,1,0,0:0:0:0:
256,192,50504,1,0,0:0:0:0:
256,192,50631,1,8,0:0:0:0:
256,192,50758,1,8,0:0:0:0:
256,192,51011,1,0,0:0:0:0:
256,192,51264,1,8,0:0:0:0:
256,192,51517,1,0,0:0:0:0:
256,192,51897,1,8,0:0:0:0:
256,192,52277,1,8,0:0:0:0:
256,192,52656,1,8,0:0:0:0:
256,192,53036,1,0,0:0:0:0:
256,192,53416,1,8,0:0:0:0:
256,192,53796,1,0,0:0:0:0:
256,192,54175,1,8,0:0:0:0:
256,192,54555,1,8,0:0:0:0:
256,192,54935,1,8,0:0:0:0:
256,192,55315,1,0,0:0:0:0:
256,192,55694,1,8,0:0:0:0:
256,192,56074,1,0,0:0:0:0:
256,192,56201,1,12,0:0:0:0:
256,192,56454,1,12,0:0:0:0:
256,192,56707,1,12,0:0:0:0:
256,192,56960,1,12,0:0:0:0:
256,192,57213,1,12,0:0:0:0:
256,192,57466,1,12,0:0:0:0:
256,192,57593,1,4,0:0:0:0:
256,192,57846,1,8,0:0:0:0:
256,192,58099,1,0,0:0:0:0:
256,192,58353,1,0,0:0:0:0:
256,192,58479,1,0,0:0:0:0:
256,192,58606,1,0,0:0:0:0:
256,192,58859,1,8,0:0:0:0:
256,192,59112,1,0,0:0:0:0:
256,192,59365,1,0,0:0:0:0:
256,192,59618,1,8,0:0:0:0:
256,192,59872,1,8,0:0:0:0:
256,192,60125,1,0,0:0:0:0:
256,192,60378,1,0,0:0:0:0:
256,192,60631,1,8,0:0:0:0:
256,192,60884,1,8,0:0:0:0:
256,192,61137,1,0,0:0:0:0:
256,192,61390,1,8,0:0:0:0:
256,192,61644,1,0,0:0:0:0:
256,192,61897,1,0,0:0:0:0:
256,192,62150,1,8,0:0:0:0:
256,192,62403,1,0,0:0:0:0:
256,192,62530,1,0,0:0:0:0:
256,192,62656,1,0,0:0:0:0:
256,192,62909,1,8,0:0:0:0:
256,192,63163,1,0,0:0:0:0:
256,192,63289,1,8,0:0:0:0:
256,192,63416,1,0,0:0:0:0:
256,192,63542,1,8,0:0:0:0:
256,192,63669,1,0,0:0:0:0:
256,192,64049,1,8,0:0:0:0:
256,192,64428,1,0,0:0:0:0:
256,192,64682,1,8,0:0:0:0:
256,192,65188,1,0,0:0:0:0:
256,192,65568,1,8,0:0:0:0:
256,192,65947,1,0,0:0:0:0:
256,192,66201,1,0,0:0:0:0:
256,192,66454,1,8,0:0:0:0:
256,192,66707,1,8,0:0:0:0:
256,192,67087,1,8,0:0:0:0:
256,192,67466,1,0,0:0:0:0:
256,192,67720,1,8,0:0:0:0:
256,192,67973,1,0,0:0:0:0:
256,192,68226,2,0,L|192:192,5,62.9999980773926,0|0|0|0|0|0,0:0|0:0|0:0|0:0|0:0|0:0,0:0:0:0:
256,192,68985,1,4,0:0:0:0:
256,192,69112,1,4,0:0:0:0:
256,192,69238,1,4,0:0:0:0:
256,192,69365,1,4,0:0:0:0:
256,192,69491,1,4,0:0:0:0:
256,192,69618,1,4,0:0:0:0:
256,192,69745,1,12,0:0:0:0:
256,192,69998,1,0,0:0:0:0:
256,192,70251,1,0,0:0:0:0:
256,192,70504,1,12,0:0:0:0:
256,192,70758,1,0,0:0:0:0:
256,192,71011,1,0,0:0:0:0:
256,192,71264,1,12,0:0:0:0:
256,192,71517,1,0,0:0:0:0:
256,192,71770,1,0,0:0:0:0:
256,192,72023,1,12,0:0:0:0:
256,192,72150,1,4,0:0:0:0:
256,192,72403,1,12,0:0:0:0:
256,192,72656,1,4,0:0:0:0:
256,192,72783,1,12,0:0:0:0:
256,192,73036,1,0,0:0:0:0:
256,192,73289,1,0,0:0:0:0:
256,192,73542,1,12,0:0:0:0:
256,192,73796,1,0,0:0:0:0:
256,192,74049,1,0,0:0:0:0:
256,192,74302,1,12,0:0:0:0:
256,192,74555,1,0,0:0:0:0:
256,192,74808,1,0,0:0:0:0:
256,192,75061,1,12,0:0:0:0:
256,192,75315,1,12,0:0:0:0:
256,192,75568,1,12,0:0:0:0:
256,192,75821,1,12,0:0:0:0:
256,192,76074,1,0,0:0:0:0:
256,192,76327,1,0,0:0:0:0:
256,192,76580,1,12,0:0:0:0:
256,192,76834,1,0,0:0:0:0:
256,192,77087,1,0,0:0:0:0:
256,192,77340,1,12,0:0:0:0:
256,192,77593,1,0,0:0:0:0:
256,192,77846,1,0,0:0:0:0:
256,192,78099,1,12,0:0:0:0:
256,192,78226,1,4,0:0:0:0:
256,192,78479,1,12,0:0:0:0:
256,192,78732,1,4,0:0:0:0:
256,192,78859,1,12,0:0:0:0:
256,192,79112,1,0,0:0:0:0:
256,192,79365,1,0,0:0:0:0:
256,192,79618,1,12,0:0:0:0:
256,192,79872,1,0,0:0:0:0:
256,192,80125,1,0,0:0:0:0:
256,192,80378,1,12,0:0:0:0:
256,192,80631,1,0,0:0:0:0:
256,192,80884,1,0,0:0:0:0:
256,192,81011,1,0,0:0:0:0:
256,192,81137,1,0,0:0:0:0:
256,192,81264,1,8,0:0:0:0:
256,192,81390,1,8,0:0:0:0:
256,192,81517,1,0,0:0:0:0:
256,192,81644,1,0,0:0:0:0:
256,192,81770,1,8,0:0:0:0:
256,192,81897,12,0,84682,0:0:0:0:
256,192,84935,5,0,0:0:0:0:
256,192,85315,1,8,0:0:0:0:
256,192,85695,1,8,0:0:0:0:
256,192,86074,1,8,0:0:0:0:
256,192,86454,1,0,0:0:0:0:
256,192,86834,1,8,0:0:0:0:
256,192,87214,1,0,0:0:0:0:
256,192,87593,1,8,0:0:0:0:
256,192,87973,1,8,0:0:0:0:
256,192,88353,1,8,0:0:0:0:
256,192,88733,1,0,0:0:0:0:
256,192,89112,1,8,0:0:0:0:
256,192,89492,1,0,0:0:0:0:
256,192,89619,1,12,0:0:0:0:
256,192,89872,1,12,0:0:0:0:
256,192,90125,1,12,0:0:0:0:
256,192,90378,1,12,0:0:0:0:
256,192,90631,1,12,0:0:0:0:
256,192,90884,1,12,0:0:0:0:
256,192,91011,1,4,0:0:0:0:
256,192,91264,1,8,0:0:0:0:
256,192,91517,1,0,0:0:0:0:
256,192,91771,1,0,0:0:0:0:
256,192,91897,1,0,0:0:0:0:
256,192,92024,1,0,0:0:0:0:
256,192,92277,1,8,0:0:0:0:
256,192,92530,1,0,0:0:0:0:
256,192,92783,1,0,0:0:0:0:
256,192,93036,1,8,0:0:0:0:
256,192,93290,1,8,0:0:0:0:
256,192,93543,1,0,0:0:0:0:
256,192,93796,1,0,0:0:0:0:
256,192,94049,1,8,0:0:0:0:
256,192,94302,1,8,0:0:0:0:
256,192,94555,1,0,0:0:0:0:
256,192,94808,1,8,0:0:0:0:
256,192,95062,1,0,0:0:0:0:
256,192,95315,1,0,0:0:0:0:
256,192,95568,1,8,0:0:0:0:
256,192,95821,1,0,0:0:0:0:
256,192,95948,1,0,0:0:0:0:
256,192,96074,1,0,0:0:0:0:
256,192,96327,1,8,0:0:0:0:
256,192,96581,1,0,0:0:0:0:
256,192,96707,1,8,0:0:0:0:
256,192,96834,1,0,0:0:0:0:
256,192,96960,1,8,0:0:0:0:
256,192,97087,1,0,0:0:0:0:
256,192,97467,1,8,0:0:0:0:
256,192,97847,1,8,0:0:0:0:
256,192,98226,1,8,0:0:0:0:
256,192,98606,1,0,0:0:0:0:
256,192,98986,1,8,0:0:0:0:
256,192,99366,1,0,0:0:0:0:
256,192,99745,1,8,0:0:0:0:
256,192,100125,1,8,0:0:0:0:
256,192,100505,1,8,0:0:0:0:
256,192,100885,1,0,0:0:0:0:
256,192,101264,1,8,0:0:0:0:
256,192,101644,1,0,0:0:0:0:
256,192,101771,1,12,0:0:0:0:
256,192,102024,1,12,0:0:0:0:
256,192,102277,1,12,0:0:0:0:
256,192,102530,1,12,0:0:0:0:
256,192,102783,1,12,0:0:0:0:
256,192,103036,1,12,0:0:0:0:
256,192,103163,1,4,0:0:0:0:
256,192,103416,1,8,0:0:0:0:
256,192,103669,1,0,0:0:0:0:
256,192,103923,1,0,0:0:0:0:
256,192,104049,1,0,0:0:0:0:
256,192,104176,1,0,0:0:0:0:
256,192,104429,1,8,0:0:0:0:
256,192,104682,1,0,0:0:0:0:
256,192,104935,1,0,0:0:0:0:
256,192,105188,1,8,0:0:0:0:
256,192,105442,1,8,0:0:0:0:
256,192,105695,1,0,0:0:0:0:
256,192,105948,1,0,0:0:0:0:
256,192,106201,1,8,0:0:0:0:
256,192,106454,1,8,0:0:0:0:
256,192,106707,1,0,0:0:0:0:
256,192,106960,1,8,0:0:0:0:
256,192,107214,1,0,0:0:0:0:
256,192,107467,1,0,0:0:0:0:
256,192,107720,1,8,0:0:0:0:
256,192,107973,1,0,0:0:0:0:
256,192,108100,1,0,0:0:0:0:
256,192,108226,1,0,0:0:0:0:
256,192,108479,1,8,0:0:0:0:
256,192,108733,1,0,0:0:0:0:
256,192,108859,1,8,0:0:0:0:
256,192,108986,1,0,0:0:0:0:
256,192,109112,1,8,0:0:0:0:
256,192,109239,1,4,0:0:0:0:
256,192,109619,1,8,0:0:0:0:
256,192,109999,1,8,0:0:0:0:
256,192,110378,1,8,0:0:0:0:
256,192,110758,1,0,0:0:0:0:
256,192,111138,1,8,0:0:0:0:
256,192,111518,1,0,0:0:0:0:
256,192,111897,1,8,0:0:0:0:
256,192,112277,1,8,0:0:0:0:
256,192,112657,1,8,0:0:0:0:
256,192,113037,1,0,0:0:0:0:
256,192,113289,1,8,0:0:0:0:
256,192,113480,1,8,0:0:0:0:
256,192,113543,1,8,0:0:0:0:
256,192,113606,1,8,0:0:0:0:
256,192,113796,1,4,0:0:0:0:
256,192,113922,1,4,0:0:0:0:
256,192,114175,1,12,0:0:0:0:
256,192,114428,1,4,0:0:0:0:
256,192,114555,1,12,0:0:0:0:
