osu file format v12

[General]
AudioFilename: Carol Megamix.mp3
AudioLeadIn: 0
PreviewTime: 76477
Countdown: 0
SampleSet: Soft
StackLeniency: 0.7
Mode: 0
LetterboxInBreaks: 0
WidescreenStoryboard: 0

[Editor]
DistanceSpacing: 0.8
BeatDivisor: 4
GridSize: 4

[Metadata]
Title:Carol Megamix
TitleUnicode:Carol Megamix
Artist:Hiro
ArtistUnicode:Hiro
Creator:LunarSakuya
Version:Normal
Source:O2Jam
Tags:christmas meiikyuu
BeatmapID:190586
BeatmapSetID:64901

[Difficulty]
HPDrainRate:4
CircleSize:3
OverallDifficulty:4
ApproachRate:5
SliderMultiplier:1.3
SliderTickRate:1

[Events]
//Background and Video events
0,0,"carol.jpg",0,0
//Break Periods
//Storyboard Layer 0 (Background)
//Storyboard Layer 1 (Fail)
//Storyboard Layer 2 (Pass)
//Storyboard Layer 3 (Foreground)
//Storyboard Sound Samples
//Background Colour Transformations
3,100,163,162,255

[TimingPoints]
3118,382.165605095541,4,2,0,75,1,0
3118,-100,4,2,0,75,0,1
15347,-100,4,2,0,75,0,0
26812,-100,4,2,1,75,0,0
26908,-100,4,2,0,75,0,0
33691,-100,4,2,1,75,0,0
33787,-100,4,2,0,75,0,0
64264,-100,4,2,0,75,0,1
76494,-100,4,2,0,75,0,0
78787,-100,4,2,1,75,0,0
78882,-100,4,2,0,75,0,0
91016,-100,4,2,1,75,0,0
91111,-100,4,2,0,75,0,0
137640,-100,4,2,1,75,0,0
137736,-100,4,2,0,75,0,0
140697,-100,4,2,0,75,0,1
153691,-100,4,2,0,75,0,0

[Colours]
Combo1 : 100,255,100
Combo2 : 72,164,255
Combo3 : 255,128,255
Combo4 : 255,91,91

[HitObjects]
92,192,3118,2,0,P|132:240|204:260,1,130,4|8,0:0|0:0,0:0:0:0:
296,284,3882,2,0,P|340:252|420:244,1,130,0|8,0:0|0:0,0:0:0:0:
420,140,4646,1,0,0:0:0:0:
344,68,5029,1,8,0:0:0:0:
240,76,5411,2,0,L|168:96,2,65,0|0|8,0:0|0:0|0:0,0:0:0:0:
256,180,6175,6,0,P|224:232|156:256,1,130,0|8,0:0|0:0,0:0:0:0:
64,224,6939,2,0,L|40:88,1,130,0|8,0:0|0:0,0:0:0:0:
144,76,7704,2,0,P|212:68|272:28,1,130,0|8,0:0|0:0,0:0:0:0:
352,92,8468,1,8,0:0:0:0:
412,176,8850,2,0,L|380:236,1,65,8|8,0:0|0:0,0:0:0:0:
348,276,9232,6,0,B|292:312|228:280|156:244|96:288,1,260
60,192,10379,1,8,0:0:0:0:
92,92,10761,2,0,B|152:136|224:100|288:68|344:104,2,260
60,192,12672,1,8,0:0:0:0:
156,232,13054,2,0,P|160:264|152:300,2,65,0|0|8,0:0|0:0|0:0,0:0:0:0:
256,252,13818,6,0,L|348:212,2,97.5,4|4|4,0:0|0:0|0:0,0:0:0:0:
256,304,14583,1,4,0:0:0:0:
256,96,15347,5,4,0:0:0:0:
344,152,15729,2,0,P|368:124|384:96,2,65,8|0|0,0:0|0:0|0:0,0:0:0:0:
400,240,16494,2,0,P|368:292|304:324,1,130,8|0,0:0|0:0,0:0:0:0:
204,328,17258,2,0,P|172:328|136:312,2,65,8|0|0,0:0|0:0|0:0,0:0:0:0:
188,224,18022,1,8,0:0:0:0:
212,124,18404,6,0,P|144:128|100:172,2,130,0|8|0,0:0|0:0|0:0,0:0:0:0:
296,184,19551,1,8,0:0:0:0:
368,260,19933,2,0,P|436:256|480:212,2,130,0|8|8,0:0|0:0|0:0,0:0:0:0:
280,312,21080,1,8,0:0:0:0:
208,240,21462,6,0,L|208:164,2,65,0|0|8,0:0|0:0|0:0,0:0:0:0:
104,228,22226,2,0,L|104:96,1,130,0|8,0:0|0:0,0:0:0:0:
204,64,22990,2,0,L|268:64,2,65,0|0|8,0:0|0:0|0:0,0:0:0:0:
248,160,23755,2,0,L|380:160,1,130,0|8,0:0|0:0,0:0:0:0:
372,264,24519,6,0,L|436:264,2,65,0|0|8,0:0|0:0|0:0,0:0:0:0:
268,264,25283,2,0,P|196:244|184:76,2,260,0|0|4,0:0|0:0|0:0,0:0:0:0:
256,160,27194,1,2,0:0:0:0:
324,80,27576,6,0,P|360:124|360:200,3,130,4|8|0|8,0:0|0:0|0:0|0:0,0:0:0:0:
332,296,29105,1,0,0:0:0:0:
232,320,29487,2,0,L|112:264,1,130,8|0,0:0|0:0,0:0:0:0:
188,192,30252,1,8,0:0:0:0:
156,92,30634,6,0,L|96:132,2,65,0|0|8,0:0|0:0|0:0,0:0:0:0:
260,80,31398,2,0,L|320:40,2,65,0|0|8,0:0|0:0|0:0,0:0:0:0:
336,152,32162,1,0,0:0:0:0:
376,248,32545,1,8,0:0:0:0:
312,332,32927,2,0,P|268:288|200:264,1,130,8|8,0:0|0:0,0:0:0:0:
140,184,33691,6,0,P|108:236|116:308,3,130,4|8|0|8,0:0|0:0|0:0|0:0,0:0:0:0:
208,264,35220,1,0,0:0:0:0:
296,316,35602,2,0,L|416:264,1,130,8|0,0:0|0:0,0:0:0:0:
412,160,36366,1,8,0:0:0:0:
356,72,36748,6,0,P|292:56|228:80,1,130,0|8,0:0|0:0,0:0:0:0:
296,160,37513,2,0,P|268:208|200:236,1,130,0|8,0:0|0:0,0:0:0:0:
112,180,38277,2,0,P|96:272|232:336,2,260,0|0|4,0:0|0:0|0:0,0:0:0:0:
200,128,40188,5,8,0:0:0:0:
304,140,40570,2,0,L|344:80,2,65,0|0|8,0:0|0:0|0:0,0:0:0:0:
348,236,41334,2,0,P|408:272|444:320,2,130,0|8|0,0:0|0:0|0:0,0:0:0:0:
256,288,42481,1,8,0:0:0:0:
164,236,42863,6,0,P|104:272|68:320,2,130,0|8|0,0:0|0:0|0:0,0:0:0:0:
256,288,44010,1,8,0:0:0:0:
256,184,44392,2,0,L|256:52,2,130,0|8|8,0:0|0:0|0:0,0:0:0:0:
256,288,45538,1,8,0:0:0:0:
360,304,45920,5,0,0:0:0:0:
428,224,46303,2,0,L|488:272,2,65,8|0|0,0:0|0:0|0:0,0:0:0:0:
400,124,47067,1,8,0:0:0:0:
316,60,47449,2,0,B|256:88|256:88|196:60,2,130,0|8|0,0:0|0:0|0:0,0:0:0:0:
324,164,48596,1,8,0:0:0:0:
256,244,48978,6,0,P|204:272|84:148,2,260
256,140,50889,1,2,0:0:0:0:
328,68,51271,2,0,B|388:100|392:184|392:184|352:224|348:296,1,260,0|4,0:0|0:0,0:0:0:0:
248,320,52417,5,8,0:0:0:0:
144,320,52799,2,0,P|92:296|68:228,1,130,0|8,0:0|0:0,0:0:0:0:
172,224,53564,2,0,P|228:192|296:204,2,130,0|8|0,0:0|0:0|0:0,0:0:0:0:
380,204,55092,6,0,P|372:244|352:272,2,65,0|0|8,0:0|0:0|0:0,0:0:0:0:
384,100,55857,1,0,0:0:0:0:
288,140,56239,1,8,0:0:0:0:
192,100,56621,2,0,L|60:72,2,130,0|8|8,0:0|0:0|0:0,0:0:0:0:
136,188,57768,1,8,0:0:0:0:
240,180,58150,6,0,P|280:140|280:56,2,130,2|8|0,0:0|0:0|0:0,0:0:0:0:
180,268,59296,1,8,0:0:0:0:
284,288,59678,2,0,L|284:364,2,65,0|0|8,0:0|0:0|0:0,0:0:0:0:
388,268,60443,2,0,P|420:212|420:148,1,130,0|8,0:0|0:0,0:0:0:0:
324,184,61207,6,0,P|252:180|204:140,1,130,0|8,0:0|0:0,0:0:0:0:
132,76,61971,2,0,L|96:136,1,65
72,176,62353,1,8,0:0:0:0:
112,272,62736,2,0,L|72:328,2,65,0|0|2,0:0|0:0|0:0,0:0:0:0:
216,264,63500,2,0,B|284:224|340:264|404:300|472:256,1,260,0|4,0:0|0:0,0:0:0:0:
408,172,64646,6,0,P|400:108|364:52,1,130,8|0,0:0|0:0,0:0:0:0:
264,80,65411,1,8,0:0:0:0:
164,48,65793,2,0,P|68:96|72:240,2,260
152,152,67704,5,8,0:0:0:0:
164,256,68086,2,0,P|224:268|268:328,1,130,0|8,0:0|0:0,0:0:0:0:
368,320,68850,2,0,P|409:268|469:256,2,130,0|8|8,0:0|0:0|0:0,0:0:0:0:
264,308,69997,2,0,L|200:332,1,65,8|8,0:0|0:0,0:0:0:0:
152,332,70379,6,0,B|112:256|160:208|212:156|164:84,1,260
80,148,71525,1,8,0:0:0:0:
64,252,71908,2,0,B|116:280|192:236|268:192|324:216,2,260
80,148,73818,1,8,0:0:0:0:
176,104,74201,2,0,L|176:40,2,65,0|0|8,0:0|0:0|0:0,0:0:0:0:
280,124,74965,6,0,L|376:88,2,97.5,4|4|4,0:0|0:0|0:0,0:0:0:0:
272,176,75729,1,4,0:0:0:0:
68,132,76494,6,0,P|44:192|68:260,2,130,4|8|0,0:0|0:0|0:0,0:0:0:0:
152,192,77640,1,8,0:0:0:0:
236,132,78022,2,0,P|260:192|236:260,2,130,2|8|6,0:0|0:0|0:0,0:0:0:0:
152,192,79169,1,8,0:0:0:0:
160,296,79551,6,0,P|208:340|276:344,1,130,2|8,0:0|0:0,0:0:0:0:
372,320,80315,2,0,P|424:280|440:208,1,130,2|8,0:0|0:0,0:0:0:0:
432,116,81080,2,0,P|396:60|336:40,2,130,2|8|8,0:0|0:0|0:0,0:0:0:0:
332,140,82226,1,8,0:0:0:0:
232,112,82608,6,0,P|168:128|124:172,2,130,2|8|0,0:0|0:0|0:0,0:0:0:0:
276,208,83755,2,0,L|304:280,1,65,8|2,0:0|0:0,0:0:0:0:
320,316,84137,2,0,P|396:308|436:276,2,130,2|8|0,0:0|0:0|0:0,0:0:0:0:
216,300,85283,1,8,0:0:0:0:
112,296,85666,6,0,B|132:224|132:224|92:172|116:108,1,195,0|0,0:0|0:0,0:0:0:0:
140,64,86430,1,2,0:0:0:0:
348,36,87194,6,0,B|312:101|312:101|339:161|301:218,1,195,0|0,0:0|0:0,0:0:0:0:
268,256,87959,1,2,0:0:0:0:
340,328,88341,1,8,0:0:0:0:
428,272,88723,5,0,0:0:0:0:
440,220,88914,2,0,P|468:136|424:40,1,195,2|0,0:0|0:0,0:0:0:0:
336,92,89869,1,8,0:0:0:0:
236,116,90252,2,0,P|168:100|108:120,2,130,2|8|6,0:0|0:0|0:0,0:0:0:0:
356,288,91780,6,0,P|292:308|228:292,1,130,4|8,0:0|0:0,0:0:0:0:
176,204,92545,1,0,0:0:0:0:
232,116,92927,1,8,0:0:0:0:
336,120,93309,2,0,P|400:140|444:188,1,130,0|8,0:0|0:0,0:0:0:0:
436,288,94073,1,0,0:0:0:0:
352,348,94455,1,8,0:0:0:0:
248,340,94838,6,0,L|120:304,1,130,0|8,0:0|0:0,0:0:0:0:
108,200,95602,2,0,L|236:236,2,130,0|8|0,0:0|0:0|0:0,0:0:0:0:
32,128,96748,2,0,P|84:96|156:104,1,130,8|0,0:0|0:0,0:0:0:0:
252,132,97513,1,8,0:0:0:0:
344,84,97895,6,0,P|400:128|428:180,1,130,0|8,0:0|0:0,0:0:0:0:
344,240,98659,2,0,P|324:304|272:352,1,130,0|8,0:0|0:0,0:0:0:0:
204,276,99424,1,0,0:0:0:0:
104,296,99806,2,0,P|76:172|176:92,1,260,8|8,0:0|0:0,0:0:0:0:
256,192,100952,12,4,104010,0:0:0:0:
196,100,104392,6,0,P|256:76|316:100,2,130,8|0|8,0:0|0:0|0:0,0:0:0:0:
196,204,105538,2,0,P|256:228|316:204,2,130,0|8|0,0:0|0:0|0:0,0:0:0:0:
96,172,106685,1,8,0:0:0:0:
96,276,107067,6,0,P|156:300|208:344,1,130,0|8,0:0|0:0,0:0:0:0:
308,344,107831,2,0,P|357:302|417:278,1,130,0|8,0:0|0:0,0:0:0:0:
428,176,108596,2,0,B|384:124|316:120|316:120|252:160|188:128,1,260
244,40,109742,1,8,0:0:0:0:
140,40,110124,6,0,P|96:84|92:148,1,130,0|8,0:0|0:0,0:0:0:0:
92,252,110889,2,0,P|96:316|140:360,1,130,0|8,0:0|0:0,0:0:0:0:
196,272,111653,1,0,0:0:0:0:
300,272,112035,2,0,P|372:292|372:144,1,260,8|8,0:0|0:0,0:0:0:0:
256,192,113182,12,4,116239,0:0:0:0:
256,72,117003,5,0,0:0:0:0:
180,264,117768,1,0,0:0:0:0:
256,336,118150,1,8,0:0:0:0:
332,264,118532,1,0,0:0:0:0:
408,72,119296,6,0,B|360:116|360:116|288:116,1,130,0|8,0:0|0:0,0:0:0:0:
200,76,120061,2,0,B|135:76|135:76|87:120,1,130,0|8,0:0|0:0,0:0:0:0:
164,192,120825,1,0,0:0:0:0:
164,296,121207,1,8,0:0:0:0:
256,344,121589,1,0,0:0:0:0:
348,300,121971,1,8,0:0:0:0:
356,196,122353,6,0,L|356:60,2,130,0|8|0,0:0|0:0|0:0,0:0:0:0:
256,160,123500,1,8,0:0:0:0:
156,124,123882,2,0,L|156:260,2,130,0|8|0,0:0|0:0|0:0,0:0:0:0:
236,56,125029,1,8,0:0:0:0:
340,72,125411,6,0,P|348:136|384:196,1,130,0|8,0:0|0:0,0:0:0:0:
332,284,126175,2,0,P|268:300|212:336,1,130,0|8,0:0|0:0,0:0:0:0:
124,280,126939,2,0,B|72:224|116:160|116:160|88:96|136:40,2,260,0|0|4,0:0|0:0|0:0,0:0:0:0:
208,220,128850,6,0,L|348:220,2,130,8|0|8,0:0|0:0|0:0,0:0:0:0:
228,116,129997,1,0,0:0:0:0:
332,116,130379,2,0,L|468:116,2,130,8|0|8,0:0|0:0|0:0,0:0:0:0:
228,116,131525,6,0,P|156:120|112:160,1,130,0|8,0:0|0:0,0:0:0:0:
124,260,132290,1,0,0:0:0:0:
208,324,132672,1,8,0:0:0:0:
276,248,133054,2,0,P|312:304|300:368,2,130,0|8|0,0:0|0:0|0:0,0:0:0:0:
320,152,134201,1,8,0:0:0:0:
216,160,134583,6,0,L|248:32,1,130,0|8,0:0|0:0,0:0:0:0:
144,52,135347,2,0,L|112:180,1,130,0|8,0:0|0:0,0:0:0:0:
84,276,136111,1,0,0:0:0:0:
176,328,136494,2,0,B|192:264|256:232|256:232|320:264|336:332,1,260,8|8,0:0|0:0,0:0:0:0:
424,276,137640,6,0,P|424:200|456:152,2,130,4|8|0,0:0|0:0|0:0,0:0:0:0:
336,332,138787,1,8,0:0:0:0:
256,268,139169,2,0,B|212:204|256:140|304:80|256:8,2,260,2|0|4,0:0|0:0|0:0,0:0:0:0:
200,356,141080,6,0,P|156:308|144:240,1,130,8|0,0:0|0:0,0:0:0:0:
84,160,141844,2,0,P|148:140|208:164,1,130,8|0,0:0|0:0,0:0:0:0:
280,236,142608,2,0,P|344:256|408:236,2,130,8|0|8,0:0|0:0|0:0,0:0:0:0:
332,144,143755,6,0,P|276:96|220:72,1,130,0|8,0:0|0:0,0:0:0:0:
120,68,144519,2,0,P|96:120|76:192,1,130,0|8,0:0|0:0,0:0:0:0:
68,292,145283,2,0,P|128:328|200:328,1,130,0|8,0:0|0:0,0:0:0:0:
256,252,146048,1,8,0:0:0:0:
344,304,146430,2,0,L|384:240,1,65,8|8,0:0|0:0,0:0:0:0:
400,200,146812,6,0,P|404:120|264:40,1,260
236,140,147959,1,8,0:0:0:0:
132,144,148341,2,0,P|128:224|268:304,2,260
236,140,150252,5,8,0:0:0:0:
324,192,150634,2,0,L|392:192,2,65,0|0|8,0:0|0:0|0:0,0:0:0:0:
232,240,151398,6,4,P|179:241|135:228,2,97.5
276,266,152162,2,4,P|299:312|330:345,2,97.5
276,212,152927,2,4,P|299:165|330:132,2,97.5
276,264,153691,1,4,0:0:0:0:
