osu file format v9

[General]
AudioFilename: The Way of Memories -Kizuna no Chikara-.mp3
AudioLeadIn: 1500
PreviewTime: 52771
Countdown: 0
SampleSet: Normal
StackLeniency: 0.4
Mode: 1
LetterboxInBreaks: 0

[Editor]
DistanceSpacing: 0
BeatDivisor: 4
GridSize: 8

[Metadata]
Title:The Way of Memories -Kizuna no Chikara- (TV Size)
Artist:Hirata Shihoko
Creator:No_Gu
Version:TaiGu
Source:Persona 4 the Animation
Tags:ending

[Difficulty]
HPDrainRate:5
CircleSize:5
OverallDifficulty:5
ApproachRate:5
SliderMultiplier:1.4
SliderTickRate:2

[Events]
//Background and Video events
0,0,"Taiko BG.png"
//Break Periods
//Storyboard Layer 0 (Background)
//Storyboard Layer 1 (Fail)
//Storyboard Layer 2 (Pass)
//Storyboard Layer 3 (Foreground)
//Storyboard Sound Samples
//Background Colour Transformations
3,100,163,162,255

[TimingPoints]
-1218,545.454545454546,4,1,0,65,1,0
53327,-100,4,1,0,65,0,1
87963,-100,4,1,0,5,0,0
89463,-100,4,1,0,65,0,0

[Colours]
Combo1 : 170,170,255
Combo2 : 128,0,64

[HitObjects]
256,192,418,1,8
256,192,963,1,0
256,192,1236,1,8
256,192,1782,1,8
256,192,2327,1,8
256,192,2600,1,0
256,192,2872,1,8
256,192,3145,1,4
256,192,3691,1,8
256,192,3963,1,0
256,192,4782,1,8
256,192,5327,1,0
256,192,5600,1,8
256,192,6145,1,8
256,192,6691,1,8
256,192,7236,1,8
256,192,7509,1,0
256,192,8327,1,8
256,192,8872,1,0
256,192,9145,1,8
256,192,9691,1,0
256,192,10236,1,8
256,192,10782,1,0
256,192,11327,1,8
256,192,11600,1,0
256,192,12145,1,0
256,192,12418,1,8
256,192,12963,1,0
256,192,13236,1,0
256,192,13509,1,8
256,192,14054,1,0
256,192,14600,1,8
256,192,14872,1,0
256,192,15145,1,0
256,192,15691,1,8
256,192,15963,1,0
256,192,16509,1,0
256,192,16782,1,8
256,192,17054,1,0
256,192,17327,1,0
256,192,17600,1,0
256,192,17872,1,8
256,192,18418,1,4
256,192,18963,1,8
256,192,19509,1,0
256,192,19782,1,0
256,192,20054,1,8
256,192,20327,1,0
256,192,20872,1,0
256,192,21145,1,8
256,192,21691,1,0
256,192,21963,1,0
256,192,22236,1,8
256,192,22782,1,0
256,192,23327,1,8
256,192,23872,1,0
256,192,24418,1,8
256,192,24691,1,0
256,192,25236,1,0
256,192,25509,1,8
256,192,26054,1,0
256,192,26327,1,0
256,192,26600,1,8
256,192,27145,1,0
256,192,27691,1,8
256,192,27963,1,0
256,192,28509,1,0
256,192,28782,1,8
256,192,29327,1,0
256,192,29872,1,8
256,192,30145,1,0
256,192,30691,1,0
256,192,30963,1,8
256,192,31509,1,0
256,192,32054,1,8
256,192,32600,1,0
256,192,32872,1,0
256,192,33145,1,8
256,192,33418,1,0
256,192,33963,1,0
256,192,34236,1,8
256,192,34782,1,0
256,192,35054,1,0
256,192,35327,1,8
256,192,35872,1,0
256,192,36418,1,8
256,192,36963,1,0
256,192,37509,1,8
256,192,37782,1,0
256,192,38327,1,0
256,192,38600,1,8
256,192,39145,1,0
256,192,39418,1,0
256,192,39691,1,8
256,192,40236,1,0
256,192,40782,1,8
256,192,41054,1,0
256,192,41600,1,0
256,192,41872,1,8
256,192,42418,1,0
256,192,42963,1,8
256,192,43236,1,0
256,192,43782,1,0
256,192,44054,1,8
256,192,44327,1,0
256,192,44872,1,0
256,192,45145,1,8
256,192,45691,1,0
256,192,46236,1,8
256,192,46509,1,0
256,192,47054,1,0
256,192,47327,1,8
256,192,47872,1,0
256,192,48145,1,0
256,192,48418,1,8
256,192,48963,1,0
256,192,49509,1,8
256,192,50054,1,0
256,192,50600,1,8
256,192,50872,1,4
256,192,51418,1,0
256,192,51691,1,8
256,192,52236,1,8
256,192,52509,1,0
256,192,52782,1,8
256,192,53327,1,4
256,192,53872,1,8
256,192,54691,1,0
256,192,54963,1,8
256,192,55236,1,0
256,192,55509,1,0
256,192,56054,1,8
256,192,56872,1,0
256,192,57145,1,8
256,192,57418,1,0
256,192,57691,1,4
256,192,58236,1,8
256,192,58509,1,0
256,192,59054,1,0
256,192,59327,1,8
256,192,59600,1,4
256,192,60145,1,0
256,192,60418,1,8
256,192,61236,1,0
256,192,61509,1,8
256,192,62054,1,4
256,192,62600,1,8
256,192,62872,1,0
256,192,63418,1,0
256,192,63691,1,8
256,192,64236,1,0
256,192,64782,1,8
256,192,65054,1,0
256,192,65600,1,0
256,192,65872,1,8
256,192,66418,1,0
256,192,66963,1,8
256,192,67236,1,0
256,192,67782,1,0
256,192,68054,1,8
256,192,68327,1,4
256,192,69145,1,8
256,192,69691,1,8
256,192,69963,1,0
256,192,70236,1,8
256,192,70509,1,0
256,192,70782,1,4
256,192,71327,1,8
256,192,72145,1,0
256,192,72418,1,8
256,192,72691,1,0
256,192,72963,1,0
256,192,73509,1,8
256,192,74327,1,0
256,192,74600,1,8
256,192,74872,1,0
256,192,75145,1,4
256,192,75691,1,8
256,192,75963,1,4
256,192,76509,1,0
256,192,76782,1,8
256,192,77054,1,4
256,192,77600,1,0
256,192,77872,1,8
256,192,78145,1,0
256,192,78418,1,0
256,192,78963,1,8
256,192,79509,1,4
256,192,80054,1,8
256,192,80327,1,0
256,192,80872,1,0
256,192,81145,1,8
256,192,81691,1,0
256,192,82236,1,8
256,192,82509,1,0
256,192,83054,1,0
256,192,83327,1,8
256,192,83600,1,4
256,192,84145,1,0
256,192,84418,1,8
256,192,84691,1,0
256,192,85236,1,0
256,192,85509,1,8
256,192,86054,1,0
256,192,86600,1,8
256,192,86872,1,0
256,192,87418,1,0
256,192,87691,1,8
256,192,87963,12,0,89463
