osu file format v9

[General]
AudioFilename: The Way of Memories -Kizuna no Chikara-.mp3
AudioLeadIn: 1500
PreviewTime: 52771
Countdown: 0
SampleSet: Soft
StackLeniency: 0.4
Mode: 0
LetterboxInBreaks: 1

[Editor]
DistanceSpacing: 1.3
BeatDivisor: 4
GridSize: 4

[Metadata]
Title:The Way of Memories -Kizuna no Chikara- (TV Size)
Artist:Hirata Shihoko
Creator:No_Gu
Version:Normal
Source:Persona 4 the Animation
Tags:ending

[Difficulty]
HPDrainRate:4
CircleSize:3
OverallDifficulty:3
ApproachRate:4
SliderMultiplier:1.28
SliderTickRate:2

[Events]
//Background and Video events
Video,0,"video.avi"
0,0,"BG.jpg"
//Break Periods
//Storyboard Layer 0 (Background)
//Storyboard Layer 1 (Fail)
//Storyboard Layer 2 (Pass)
//Storyboard Layer 3 (Foreground)
//Storyboard Sound Samples
//Background Colour Transformations
3,100,163,162,255

[TimingPoints]
-1218,545.454545454546,4,2,1,70,1,0
8872,-100,4,1,1,70,0,0
9145,-100,4,2,2,70,0,0
9691,-100,4,1,1,70,0,0
9827,-100,4,2,2,70,0,0
10782,-100,4,1,1,70,0,0
11054,-100,4,2,2,70,0,0
11600,-100,4,1,1,70,0,0
12418,-100,4,2,2,70,0,0
12963,-100,4,1,1,70,0,0
13509,-100,4,2,2,70,0,0
14054,-100,4,1,1,70,0,0
14600,-100,4,2,2,70,0,0
15145,-100,4,1,1,70,0,0
15418,-100,4,2,2,70,0,0
15963,-100,4,1,1,70,0,0
16645,-100,4,2,2,70,0,0
17327,-100,4,1,1,70,0,0
17872,-100,4,2,2,70,0,0
18418,-100,4,1,1,70,0,0
18963,-100,4,2,2,70,0,0
19509,-100,4,1,1,70,0,0
20054,-100,4,2,2,70,0,0
20327,-100,4,1,1,70,0,0
21145,-100,4,2,2,70,0,0
21691,-100,4,1,1,70,0,0
22236,-100,4,2,2,70,0,0
22782,-100,4,1,1,70,0,0
23327,-100,4,2,2,70,0,0
23872,-100,4,1,1,70,0,0
24418,-100,4,2,2,70,0,0
24691,-100,4,1,1,70,0,0
25509,-100,4,2,2,70,0,0
26054,-100,4,1,1,70,0,0
26600,-100,4,2,2,70,0,0
27145,-100,4,1,1,70,0,0
27691,-100,4,2,2,70,0,0
27963,-100,4,1,1,70,0,0
28236,-100,4,2,2,70,0,0
28509,-100,4,1,1,70,0,0
28782,-100,4,2,2,70,0,0
29327,-100,4,1,1,70,0,0
29872,-100,4,2,2,70,0,0
30145,-100,4,1,1,70,0,0
30963,-100,4,2,2,70,0,0
31509,-100,4,1,1,70,0,0
32054,-100,4,2,2,70,0,0
32600,-100,4,1,1,70,0,0
33145,-100,4,2,2,70,0,0
33418,-100,4,1,1,70,0,0
34236,-100,4,2,2,70,0,0
34782,-100,4,1,1,70,0,0
35191,-100,4,2,2,70,0,0
35872,-100,4,1,1,70,0,0
36418,-100,4,2,2,70,0,0
36963,-100,4,1,1,70,0,0
37372,-100,4,2,2,5,0,0
37509,-100,4,2,2,70,0,0
37782,-100,4,1,1,70,0,0
38600,-100,4,2,2,70,0,0
39145,-100,4,1,1,70,0,0
39691,-100,4,2,2,70,0,0
40236,-100,4,1,1,70,0,0
40782,-100,4,2,2,70,0,0
41054,-100,4,1,1,70,0,0
41872,-100,4,2,2,70,0,0
42418,-100,4,1,1,70,0,0
42691,-100,4,2,2,70,0,0
43236,-100,4,1,1,70,0,0
44054,-100,4,2,2,70,0,0
44327,-100,4,1,1,70,0,0
45145,-100,4,2,2,70,0,0
45691,-100,4,1,1,70,0,0
46236,-100,4,2,2,70,0,0
46509,-100,4,1,1,70,0,0
47327,-100,4,2,2,70,0,0
47872,-100,4,1,1,70,0,0
48418,-100,4,2,2,70,0,0
48963,-100,4,1,1,70,0,0
49509,-100,4,2,2,70,0,0
50054,-100,4,1,1,70,0,0
50327,-100,4,2,2,70,0,0
50872,-100,4,1,1,70,0,0
51691,-100,4,2,2,70,0,0
52236,-100,4,2,1,70,0,0
53327,-100,4,1,1,70,0,1
53600,-100,4,2,1,70,0,1
54691,-100,4,1,1,70,0,1
54963,-100,4,2,1,70,0,1
55509,-100,4,1,1,70,0,1
56054,-100,4,2,1,70,0,1
56872,-100,4,1,1,70,0,1
57145,-100,4,2,1,70,0,1
57691,-100,4,1,1,70,0,1
57963,-100,4,2,1,70,0,1
58509,-100,4,1,1,70,0,1
58782,-100,4,2,1,70,0,1
59054,-100,4,1,1,70,0,1
59327,-100,4,2,1,70,0,1
59600,-100,4,1,1,70,0,1
60418,-100,4,2,1,70,0,1
60963,-100,4,1,1,70,0,1
61509,-100,4,2,1,70,0,1
62054,-100,4,1,1,70,0,1
62600,-100,4,2,1,70,0,1
62872,-100,4,1,1,70,0,1
63691,-100,4,2,1,70,0,1
64236,-100,4,1,1,70,0,1
64782,-100,4,2,1,70,0,1
65054,-100,4,1,1,70,0,1
65872,-100,4,2,1,70,0,1
66418,-100,4,1,1,70,0,1
66691,-100,4,2,1,70,0,1
67236,-100,4,1,1,70,0,1
67509,-100,4,2,1,70,0,1
67782,-100,4,1,1,70,0,1
68054,-100,4,2,1,70,0,1
68327,-100,4,1,1,70,0,1
69145,-100,4,2,1,70,0,1
69963,-100,4,1,1,70,0,1
70100,-100,4,2,1,70,0,1
70509,-100,4,1,1,70,0,1
70645,-100,4,2,1,70,0,0
70782,-100,4,1,1,70,0,1
70918,-100,4,2,1,70,0,1
72145,-100,4,1,1,70,0,1
72418,-100,4,2,1,70,0,1
72963,-100,4,1,1,70,0,1
73509,-100,4,2,1,70,0,1
74327,-100,4,1,1,70,0,1
74600,-100,4,2,1,70,0,1
75145,-100,4,1,1,70,0,1
75691,-100,4,2,1,70,0,1
75963,-100,4,1,1,70,0,1
76782,-100,4,2,1,70,0,1
77054,-100,4,1,1,70,0,1
77872,-100,4,2,1,70,0,1
78418,-100,4,1,1,70,0,1
78963,-100,4,2,1,70,0,1
79509,-100,4,1,1,70,0,1
80054,-100,4,2,1,70,0,1
80327,-100,4,1,1,70,0,1
81145,-100,4,2,1,70,0,1
81691,-100,4,1,1,70,0,1
82236,-100,4,2,1,70,0,1
82509,-100,4,1,1,70,0,1
83327,-100,4,2,1,70,0,1
83600,-100,4,1,1,70,0,1
84418,-100,4,2,1,70,0,1
84691,-100,4,1,1,70,0,1
84963,-100,4,2,1,70,0,1
85236,-100,4,1,1,70,0,1
85509,-100,4,2,1,70,0,1
86054,-100,4,1,1,70,0,1
86600,-100,4,2,1,70,0,1
86872,-100,4,1,1,70,0,1
87691,-100,4,2,1,70,0,1
87963,-100,4,2,1,40,0,0
88100,-100,4,2,1,5,0,0

[Colours]
Combo1 : 170,170,255
Combo2 : 128,0,64

[HitObjects]
256,192,418,1,2
164,52,963,5,4
80,60,1236,2,0,B|80:104|128:144|168:132,2,128,0|2|0
8,104,2600,2,0,B|28:164|16:236,1,128,0|2
168,300,3691,5,2
252,288,3963,2,0,B|352:268|352:268|400:236|400:180,1,192,0|2
256,108,5327,6,0,B|240:132|248:152|240:168,1,64,4|2
76,196,6145,1,2
96,360,6691,1,2
260,328,7236,1,2
344,316,7509,6,0,B|488:320|492:128|348:128,1,320,4|0
276,168,9145,1,8
124,96,9691,6,0,B|132:164|92:216,2,128,2|8|2
256,200,11327,1,8
316,256,11600,6,0,B|296:284|240:296|204:268|204:268|164:272|144:304,1,192,2|8
156,136,12963,2,0,B|220:100|216:24,1,128,2|8
300,176,14054,6,0,B|360:172|360:172|368:180|368:180|428:176,2,128,2|8|2
148,248,15691,1,8
124,328,15963,6,0,B|180:336|212:300|212:300|260:280|304:304,1,192,2|8
344,144,17327,2,0,B|356:208,2,64,0|0|8
184,96,18418,6,0,B|124:88|124:88|108:120|72:128,2,128,4|8|0
200,180,19782,1,0
256,240,20054,1,8
328,280,20327,6,0,B|392:308|472:264|468:184,2,192,0|8|0
248,304,22236,1,8
128,192,22782,6,0,B|88:200|60:176|60:176|40:120,1,128,0|8
208,136,23872,2,0,B|248:128|276:152|276:152|296:208,1,128,0|8
364,252,24691,6,0,B|432:264|484:208,1,128
476,128,25509,1,8
324,60,26054,2,0,B|260:56,1,64
200,112,26600,6,0,B|188:148|112:156|88:120,2,128,8|0|8
140,56,27963,1,0
256,276,28782,1,8
408,204,29327,6,0,B|424:272|392:332,1,128,0|8
312,316,30145,2,0,B|296:248|328:188,1,128,0|0
376,124,30963,1,8
224,60,31509,6,0,B|168:96|96:84,2,128,0|8|0
296,16,32872,1,0
300,100,33145,2,0,B|312:140|296:184|296:184|324:232|392:236,1,192,8|0
452,188,34236,6,0,B|496:220|468:316|408:316|408:316|360:320|336:360,1,256,8|8
196,272,35872,6,0,B|128:260|104:192,1,128,0|8
132,112,36691,1,0
192,56,36963,2,0,B|256:72|324:52,1,128,0|8
316,136,37782,6,0,B|368:136|396:92|396:92|424:140|480:144,2,192,0|8|0
232,140,39691,1,8
72,184,40236,6,0,B|108:240|96:312,1,128,0|8
164,356,41054,2,0,B|232:360|288:328,1,128
320,252,41872,2,0,B|380:216|456:232,1,128,8|0
316,124,42963,5,8
244,164,43236,2,0,B|196:176|148:156|148:156|116:184,1,128
72,240,44054,1,8
20,304,44327,6,0,B|68:336|116:308|116:308|168:312|196:352,1,192,0|8
256,192,45691,2,0,B|288:184|320:200|320:200|332:264,1,128,0|8
404,220,46509,6,0,B|415:281|415:281|447:297|479:289,1,128
512,212,47327,1,8
392,96,47872,2,0,B|456:88,2,64,0|0|8
228,68,48963,6,0,B|228:128|228:128|220:168|176:172,2,128,0|8|0
92,164,50600,2,0,B|88:200|104:228,1,64,8|0
212,352,51418,6,0,B|216:316|200:288,1,64,0|8
336,192,52236,2,0,B|328:256,2,64,8|0|8
224,72,53327,6,0,B|160:96|96:84,1,128,4|8
40,24,54145,2,0,B|4:56|4:120|48:148|48:148|44:216,1,192,0|8
100,260,55236,1,0
176,224,55509,6,0,B|232:192|300:204,2,128,0|8|0
172,308,56872,1,0
240,356,57145,1,8
388,280,57691,6,0,B|400:152,1,128,0|8
320,132,58509,2,0,B|308:260,1,128,0|0
240,304,59327,2,0,B|208:312|172:308,1,64,8|4
88,168,60145,6,0,B|120:160|156:164,1,64,0|8
268,44,60963,2,0,B|272:80|256:108,2,64,0|0|8
344,8,61782,1,0
376,84,62054,6,0,B|432:124|500:112,1,128,4|8
496,196,62872,2,0,B|430:184|374:224,1,128,0|0
408,300,63691,6,0,B|344:320|304:268|304:268|220:248|168:292,1,256,8|8
168,372,65054,2,0,B|144:308|84:272,1,128
16,232,65872,2,0,B|28:104,1,128,8|0
196,108,66963,5,8
244,40,67236,2,0,B|300:84|264:160,1,128
192,192,68054,2,0,B|188:256,1,64,8|4
340,324,68872,6,0,B|344:260,1,64,0|8
360,96,69691,1,8
196,76,70236,1,8
180,240,70782,6,0,B|112:252|52:224,1,128,4|8
36,308,71600,2,0,B|93:334|185:322|185:322|200:344|220:352,1,192,0|8
256,276,72691,1,0
300,344,72963,6,0,B|368:328|408:264,1,128,0|8
172,176,74327,2,0,B|188:116,1,64,0|8
348,68,75145,6,0,B|408:36|476:60,1,128,4|8
480,140,75963,2,0,B|420:172|352:148|352:148|316:160|304:188,1,192,4|8
264,256,77054,6,0,B|253:280|217:292|217:292|149:268|89:300,1,192,4|8
64,136,78418,2,0,B|136:136|180:76,1,128,0|8
340,60,79509,6,0,B|356:192,1,128,4|8
428,228,80327,2,0,B|416:284|332:292|300:252|300:252|268:276,1,192,0|8
192,252,81418,1,0
124,300,81691,6,0,B|52:312|0:268,1,128,0|8
44,196,82509,2,0,B|56:88|164:60,1,192,0|8
216,124,83600,6,0,B|312:136|404:96,1,192,4|8
448,24,84691,2,0,B|436:88|468:156,1,128
448,232,85509,1,8
304,312,86054,6,0,B|204:312|204:312|176:296,1,128,0|8
228,232,86872,2,0,B|203:218|203:218|106:218|106:218|68:202|64:169,1,192,0|8
100,96,87963,6,0,B|196:88|264:40|264:40|352:72|440:48,1,352,4|0
