osu file format v9

[General]
AudioFilename: The Way of Memories -Kizuna no Chikara-.mp3
AudioLeadIn: 1500
PreviewTime: 52771
Countdown: 0
SampleSet: Soft
StackLeniency: 0.4
Mode: 0
LetterboxInBreaks: 1

[Editor]
DistanceSpacing: 2
BeatDivisor: 4
GridSize: 8

[Metadata]
Title:The Way of Memories -Kizuna no Chikara- (TV Size)
Artist:Hirata Shihoko
Creator:No_Gu
Version:Hard
Source:Persona 4 the Animation
Tags:ending

[Difficulty]
HPDrainRate:7
CircleSize:4
OverallDifficulty:8
ApproachRate:8
SliderMultiplier:1.76
SliderTickRate:2

[Events]
//Background and Video events
Video,0,"video.avi"
0,0,"BG.jpg"
//Break Periods
//Storyboard Layer 0 (Background)
//Storyboard Layer 1 (Fail)
//Storyboard Layer 2 (Pass)
//Storyboard Layer 3 (Foreground)
//Storyboard Sound Samples
//Background Colour Transformations
3,100,163,162,255

[TimingPoints]
-1218,545.454545454546,4,2,1,70,1,0
7509,-200,4,2,1,70,0,0
8054,-200,4,2,1,5,0,0
8872,-200,4,1,1,70,0,0
9145,-100,4,2,2,70,0,0
9691,-100,4,1,1,70,0,0
9827,-100,4,2,2,70,0,0
10782,-100,4,1,1,70,0,0
11054,-100,4,2,2,70,0,0
11600,-100,4,1,1,70,0,0
12418,-100,4,2,2,70,0,0
12963,-100,4,1,1,70,0,0
13509,-100,4,2,2,70,0,0
14054,-100,4,1,1,70,0,0
14600,-100,4,2,2,70,0,0
15145,-100,4,1,1,70,0,0
15418,-100,4,2,2,70,0,0
15963,-100,4,1,1,70,0,0
16645,-100,4,2,2,70,0,0
17327,-100,4,1,1,70,0,0
17872,-100,4,2,2,70,0,0
18418,-100,4,1,1,70,0,0
18963,-100,4,2,2,70,0,0
19509,-100,4,1,1,70,0,0
20054,-100,4,2,2,70,0,0
20327,-100,4,1,1,70,0,0
21145,-100,4,2,2,70,0,0
21691,-100,4,1,1,70,0,0
22236,-100,4,2,2,70,0,0
22782,-100,4,1,1,70,0,0
23327,-100,4,2,2,70,0,0
23872,-100,4,1,1,70,0,0
24282,-100,4,2,2,5,0,0
24418,-100,4,2,2,70,0,0
24691,-100,4,1,1,70,0,0
25509,-100,4,2,2,70,0,0
26054,-100,4,1,1,70,0,0
26600,-100,4,2,2,70,0,0
27145,-100,4,1,1,70,0,0
27691,-100,4,2,2,70,0,0
27963,-100,4,1,1,70,0,0
28236,-100,4,2,2,70,0,0
28509,-100,4,1,1,70,0,0
28782,-100,4,2,2,70,0,0
29327,-100,4,1,1,70,0,0
29872,-100,4,2,2,70,0,0
30145,-100,4,1,1,70,0,0
30963,-100,4,2,2,70,0,0
31509,-100,4,1,1,70,0,0
32054,-100,4,2,2,70,0,0
32600,-100,4,1,1,70,0,0
33145,-100,4,2,2,70,0,0
33418,-100,4,1,1,70,0,0
34236,-100,4,2,2,70,0,0
34782,-100,4,1,1,70,0,0
35191,-100,4,2,2,70,0,0
35872,-100,4,1,1,70,0,0
36418,-100,4,2,2,70,0,0
36963,-100,4,1,1,70,0,0
37372,-100,4,2,2,5,0,0
37509,-100,4,2,2,70,0,0
37782,-100,4,1,1,70,0,0
38600,-100,4,2,2,70,0,0
39145,-100,4,1,1,70,0,0
39691,-100,4,2,2,70,0,0
40236,-100,4,1,1,70,0,0
40782,-100,4,2,2,70,0,0
41054,-100,4,1,1,70,0,0
41872,-100,4,2,2,70,0,0
42418,-100,4,1,1,70,0,0
42691,-100,4,2,2,70,0,0
43236,-100,4,1,1,70,0,0
44054,-100,4,2,2,70,0,0
44327,-100,4,1,1,70,0,0
45145,-100,4,2,2,70,0,0
45691,-100,4,1,1,70,0,0
46236,-100,4,2,2,70,0,0
46509,-100,4,1,1,70,0,0
47327,-100,4,2,2,70,0,0
47872,-100,4,1,1,70,0,0
48418,-100,4,2,2,70,0,0
48963,-100,4,1,1,70,0,0
49509,-100,4,2,2,70,0,0
50054,-100,4,1,1,70,0,0
50327,-100,4,2,2,70,0,0
50872,-100,4,1,1,70,0,0
51691,-100,4,2,2,70,0,0
52236,-100,4,2,1,70,0,0
53327,-100,4,1,1,70,0,1
53600,-100,4,2,1,70,0,1
54691,-100,4,1,1,70,0,1
54963,-100,4,2,1,70,0,1
55509,-100,4,1,1,70,0,1
56054,-100,4,2,1,70,0,1
56872,-100,4,1,1,70,0,1
57145,-100,4,2,1,70,0,1
57691,-100,4,1,1,70,0,1
57963,-100,4,2,1,70,0,1
58509,-100,4,1,1,70,0,1
58782,-100,4,2,1,70,0,1
59054,-100,4,1,1,70,0,1
59327,-100,4,2,1,70,0,1
59600,-100,4,1,1,70,0,1
60418,-100,4,2,1,70,0,1
60963,-100,4,1,1,70,0,1
61509,-100,4,2,1,70,0,1
62054,-100,4,1,1,70,0,1
62600,-100,4,2,1,70,0,1
62872,-100,4,1,1,70,0,1
63691,-100,4,2,1,70,0,1
64236,-100,4,1,1,70,0,1
64782,-100,4,2,1,70,0,1
65054,-100,4,1,1,70,0,1
65872,-100,4,2,1,70,0,1
66418,-100,4,1,1,70,0,1
66691,-100,4,2,1,70,0,1
67236,-100,4,1,1,70,0,1
67509,-100,4,2,1,70,0,1
67782,-100,4,1,1,70,0,1
68054,-100,4,2,1,70,0,1
68327,-100,4,1,1,70,0,1
69145,-100,4,2,1,70,0,1
69963,-100,4,1,1,70,0,1
70100,-100,4,2,1,70,0,1
70509,-100,4,1,1,70,0,1
70645,-100,4,2,1,70,0,0
70782,-100,4,1,1,70,0,1
70918,-100,4,2,1,70,0,1
72145,-100,4,1,1,70,0,1
72418,-100,4,2,1,70,0,1
72963,-100,4,1,1,70,0,1
73509,-100,4,2,1,70,0,1
74327,-100,4,1,1,70,0,1
74600,-100,4,2,1,70,0,1
74872,-100,4,1,1,70,0,1
75691,-100,4,2,1,70,0,1
75963,-100,4,1,1,70,0,1
76782,-100,4,2,1,70,0,1
77054,-100,4,1,1,70,0,1
77872,-100,4,2,1,70,0,1
78418,-100,4,1,1,70,0,1
78963,-100,4,2,1,70,0,1
79509,-100,4,1,1,70,0,1
80054,-100,4,2,1,70,0,1
80327,-100,4,1,1,70,0,1
81145,-100,4,2,1,70,0,1
81691,-100,4,1,1,70,0,1
82236,-100,4,2,1,70,0,1
82509,-100,4,1,1,70,0,1
83327,-100,4,2,1,70,0,1
83600,-100,4,1,1,70,0,1
84418,-100,4,2,1,70,0,1
84691,-100,4,1,1,70,0,1
84963,-100,4,2,1,70,0,1
85236,-100,4,1,1,70,0,1
85509,-100,4,2,1,70,0,1
86054,-100,4,1,1,70,0,1
86600,-100,4,2,1,70,0,1
86872,-100,4,1,1,70,0,1
87691,-100,4,2,1,70,0,1
87963,-200,4,2,1,40,0,0
88100,-200,4,2,1,5,0,0

[Colours]
Combo1 : 170,170,255
Combo2 : 128,0,64

[HitObjects]
256,192,418,1,2
256,192,963,5,4
307,120,1236,1,0
236,69,1509,1,0
184,140,1782,2,0,B|120:144|72:200|92:272,1,176,2|0
152,324,2600,1,2
12,216,2872,1,0
188,244,3145,6,0,B|240:268|240:336|240:336|300:308,1,176,2|0
320,224,3963,2,0,B|380:232|404:324|360:368,1,176,2|0
440,228,4782,1,2
440,228,5327,6,0,B|432:140,1,88,4|2
256,112,6145,1,2
96,192,6691,1,2
256,264,7236,1,2
320,324,7509,6,0,B|392:336|432:284|432:284|400:244|416:192,1,220,4|0
500,224,9145,1,8
500,224,9691,6,0,B|420:256|328:248,2,176,2|8|2
496,92,11054,1,0
368,64,11327,1,8
312,132,11600,6,0,B|256:176|192:144|192:144|144:176,1,176,2|0
76,216,12418,1,8
76,216,12963,2,0,B|80:264|60:304,2,88,2|0|10
164,268,13781,1,0
176,292,13918,1,0
196,308,14054,6,0,B|296:324|360:260,2,176,2|8|2
252,188,15418,1,0
384,180,15691,1,8
316,128,15963,6,0,B|352:92|404:100|404:100|412:56|460:44,1,176,2|0
496,124,16781,2,0,B|480:304,1,176,8|2
356,344,17600,1,0
236,292,17872,1,8
236,292,18418,6,0,B|136:280|120:176,2,176,4|8|0
300,232,19781,1,0
376,188,20054,2,0,B|422:177|462:205,1,88,8|0
296,140,20872,5,0
208,124,21145,2,0,B|136:112|136:112|96:152|40:140,1,176,8|0
64,56,21963,1,0
20,228,22236,1,8
192,196,22509,1,0
196,216,22645,1,0
200,236,22781,6,0,B|212:296|212:296|264:336|320:304,1,176,0|8
352,224,23600,1,0
412,160,23872,2,0,B|376:128|312:132|288:172,1,132
264,200,24418,2,0,B|248:244|200:260,1,88,8|0
108,108,25236,5,0
180,160,25509,1,8
100,196,25781,1,0
188,72,26054,2,0,B|232:64|288:64,1,88
336,232,26600,2,0,B|254:246|151:246,2,176,8|0|8
392,164,27963,5,0
424,244,28236,2,0,B|420:292|432:336,1,88
476,176,28781,2,0,B|480:128|468:84,1,88,8|0
388,40,29327,6,0,B|308:84|216:72,1,176,0|8
84,188,30145,2,0,B|164:144|256:156,1,176
320,216,30963,2,0,B|304:260|308:304,1,88,8|0
320,320,31372,1,0
336,336,31509,6,0,B|252:304|156:324,1,176,0|8
80,348,32327,1,0
96,260,32600,1,0
184,164,32872,1,0
316,168,33145,1,8
160,88,33418,6,0,B|120:96|92:144|108:188|108:188|56:180,1,176
184,164,34236,2,0,B|224:184|252:224,1,88,8|0
292,300,34781,1,0
416,340,35054,1,0
492,232,35327,1,8
492,232,35872,6,0,B|392:196|396:96,1,176,0|8
464,44,36691,1,0
308,132,36963,2,0,B|236:136|192:76,1,132
180,48,37509,1,8
72,176,37782,6,0,B|149:228|239:191,1,176
308,132,38600,1,8
324,212,38872,2,0,B|320:308,1,88
496,312,39418,2,0,B|500:216,1,88,0|8
416,160,39963,1,0
320,300,40236,6,0,B|224:320|144:272,1,176,0|8
176,100,41054,2,0,B|272:80|352:128,1,176
184,192,41872,2,0,B|96:168,1,88,8|0
268,224,42418,5,0
312,300,42691,1,0
356,224,42963,2,0,B|444:224,1,88,8|0
192,308,43782,2,0,B|104:308,1,88,0|8
128,224,44327,6,0,B|200:224|200:224|228:204|228:204|296:204,1,176
376,244,45145,1,8
376,244,45691,2,0,B|444:216|444:216|480:168|448:120,1,176,0|8
368,156,46509,6,0,B|300:184|300:184|264:232|296:280,1,176
220,328,47327,2,0,B|176:240|216:152,1,176,8|0
272,92,48145,1,0
184,76,48418,2,0,B|132:84|92:60,1,88,8|0
8,216,48963,6,0,B|72:160|180:172,2,176,0|8|0
136,252,50327,1,0
224,352,50600,1,8
172,172,50872,6,0,B|212:100|312:112|288:192|248:160,1,176
252,44,51691,1,8
252,44,52236,1,8
184,148,52509,1,0
60,132,52782,1,8
60,132,53327,6,0,B|88:168|72:216,1,88,4|0
20,288,53872,1,8
104,292,54145,2,0,B|192:308|280:284,1,176
392,152,54963,2,0,B|344:168|332:216,1,88,8|0
420,232,55509,5,0
432,256,56054,1,8
444,280,56600,1,0
324,332,56872,1,0
204,276,57145,2,0,B|108:264|32:308,1,176,8|4
52,132,57963,6,0,B|80:168|72:216,1,88,0|8
140,100,58509,2,0,B|184:109|209:151,1,88
204,20,59054,2,0,B|244:-1|290:14,1,88,0|8
340,184,59600,6,0,B|259:226|167:194,1,176,4|0
112,72,60418,1,8
24,172,60691,1,0
20,192,60827,1,0
16,212,60963,2,0,B|8:256|16:300,1,88
136,352,61509,1,8
256,296,61782,1,0
468,312,62054,6,0,B|360:320|328:224,1,176,4|8
324,52,62872,2,0,B|432:44|462:135,1,176
416,212,63691,2,0,B|372:196|328:200,1,88,8|0
264,256,64236,6,0,B|220:224|228:152|272:132|272:132|256:108,1,176,0|8
328,200,65054,2,0,B|228:196|156:160,1,176
104,56,65872,1,8
48,160,66145,1,0
48,160,66282,1,0
48,160,66418,6,0,B|64:204|40:248,1,88
172,260,66963,2,0,B|156:216|180:172,1,88,8|0
248,224,67509,1,0
160,92,67782,1,0
316,92,68054,1,8
240,144,68327,6,0,B|288:148|320:184|320:184|328:196|328:196|352:220|396:228,1,176,4|0
472,208,69145,2,0,B|476:236|468:260,3,44,8|0|0|0
444,288,69691,2,0,B|440:316|448:340,3,44,8|0|0|0
476,364,70236,1,8
436,348,70372,1,0
392,340,70509,1,0
348,344,70645,1,0
308,360,70782,6,0,B|260:364|220:344,1,88,4|0
132,248,71327,1,8
140,116,71600,2,0,B|204:48|300:68,1,176
352,140,72418,2,0,B|340:188|360:228,1,88,8|0
376,240,72827,1,0
396,252,72963,6,0,B|296:240|232:304,1,176,0|8
164,356,73782,1,0
152,268,74054,2,0,B|144:180,1,88
316,148,74600,2,0,B|324:236,1,88,8|0
224,88,75145,6,0,B|240:264,1,176,4|8
124,132,75963,2,0,B|160:212|120:304,1,176,4|0
32,304,76782,1,8
204,344,77054,6,0,B|284:380|376:340,1,176,4|0
440,280,77872,1,8
448,192,78145,1,0
384,128,78418,2,0,B|308:96|308:96|272:128|216:112,1,176,0|8
248,32,79236,1,0
304,200,79509,6,0,B|208:224|128:176,1,176,4|8
112,352,80327,2,0,B|208:328|288:376,1,176
320,288,81145,1,8
408,264,81418,1,0
496,280,81691,6,0,B|512:104,1,176,0|8
424,88,82509,2,0,B|408:264,1,176
280,304,83327,1,8
168,232,83600,6,0,B|128:176|160:96|232:96,1,176,4|0
248,184,84418,2,0,B|336:200,1,88,8|0
336,288,84963,2,0,B|248:272,2,88,0|0|8
424,192,85782,1,0
360,72,86054,6,0,B|272:48|184:64,1,176,0|8
176,240,86872,2,0,B|264:264|352:248,1,176
400,176,87691,1,8
440,344,87963,6,0,B|376:336|328:360|328:360|312:352|312:352|256:368|200:336,1,242,4|0
