osu file format v13

[General]
AudioFilename: aoba's phone ring.mp3
AudioLeadIn: 1500
PreviewTime: 15185
Countdown: 0
SampleSet: Soft
StackLeniency: 0.7
Mode: 0
LetterboxInBreaks: 0
WidescreenStoryboard: 1

[Editor]
Bookmarks: 27685
DistanceSpacing: 1
BeatDivisor: 4
GridSize: 4
TimelineZoom: 3.899998

[Metadata]
Title:AI CATCH
TitleUnicode:AI CATCH
Artist:Hirata Hironobu
ArtistUnicode:平田博信
Creator:Regraz
Version:yf's Insane
Source:DRAMAtical Murder
Tags:dmmd dramatical murder aoba aoba's phone boys love game visual novel yaoi regenz yf_bmp GOATBED 8bit
BeatmapID:433427
BeatmapSetID:146175

[Difficulty]
HPDrainRate:6
CircleSize:5
OverallDifficulty:7
ApproachRate:9
SliderMultiplier:1.9
SliderTickRate:2

[Events]
//Background and Video events
0,0,"BG.jpg",0,0
0,0,"BG.jpg",0,0
//Break Periods
//Storyboard Layer 0 (Background)
//Storyboard Layer 1 (Fail)
//Storyboard Layer 2 (Pass)
//Storyboard Layer 3 (Foreground)
//Storyboard Sound Samples
//Background Colour Transformations
3,100,163,162,255
3,100,163,162,255

[TimingPoints]
185,416.666666666667,4,2,1,55,1,0
14976,-100,4,2,1,35,0,0
15185,-100,4,2,1,55,0,1
21435,-100,4,2,1,55,0,0
21851,-100,4,2,1,55,0,1
28101,-100,4,2,1,45,0,0
28310,-100,4,2,1,25,0,0
28622,-100,4,2,1,35,0,0
29351,-100,4,2,1,25,0,0
30185,-100,4,2,1,5,0,0

[Colours]
Combo1 : 242,24,57
Combo2 : 0,202,0
Combo3 : 18,124,255

[HitObjects]
408,168,185,5,2,0:0:0:0:
412,188,289,1,2,0:0:0:0:
416,208,393,1,0,0:0:0:0:
420,228,497,1,2,0:0:0:0:
304,340,705,1,0,0:0:0:0:
308,320,810,1,2,0:0:0:0:
204,180,1018,5,2,0:0:0:0:
156,336,1226,1,2,0:0:0:0:
312,300,1435,1,0,0:0:0:0:
188,196,1643,1,0,0:0:0:0:
160,356,1851,6,0,B|176:336|176:336|164:264,1,95,2|0,0:0|0:0,0:0:0:0:
84,184,2268,1,8,0:0:0:0:
52,292,2476,1,0,0:0:0:0:
164,267,2685,1,2,0:0:0:0:
172,248,2789,1,2,0:0:0:0:
180,228,2893,1,0,0:0:0:0:
168,36,3101,2,0,B|152:104|152:104|166:124,1,95,8|0,0:0|0:0,0:0:0:0:
313,179,3518,6,0,L|408:168,1,95,2|0,0:0|0:0,0:0:0:0:
496,244,3935,1,8,0:0:0:0:
388,280,4143,1,0,0:0:0:0:
408,168,4351,1,2,0:0:0:0:
416,184,4455,1,2,0:0:0:0:
424,200,4560,1,0,0:0:0:0:
304,304,4768,2,0,L|209:292,1,95,8|0,0:0|0:0,0:0:0:0:
47,355,5185,6,0,P|94:356|130:326,1,95,2|0,0:0|0:0,0:0:0:0:
168,168,5601,2,0,L|164:68,1,95,8|0,0:0|0:0,0:0:0:0:
23,195,6018,2,0,P|28:241|64:272,1,95,2|0,0:0|0:0,0:0:0:0:
220,236,6435,1,8,0:0:0:0:
200,232,6539,1,0,0:0:0:0:
180,232,6643,1,0,0:0:0:0:
324,304,6851,6,0,P|370:307|413:287,1,95,2|0,0:0|0:0,0:0:0:0:
412,124,7268,2,0,P|369:103|322:107,1,95,8|0,0:0|0:0,0:0:0:0:
196,208,7685,2,0,L|292:208,1,95,2|0,0:0|0:0,0:0:0:0:
291,208,7997,1,0,0:0:0:0:
291,208,8101,1,8,0:0:0:0:
148,288,8310,1,2,0:0:0:0:
56,156,8518,6,0,P|41:111|57:67,1,95,2|0,0:0|0:0,0:0:0:0:
124,116,8830,1,2,0:0:0:0:
124,116,8935,2,0,L|132:168,1,47.5,8|0,0:0|0:0,0:0:0:0:
148,287,9143,2,0,B|192:264|192:264|240:320|319:306,1,190,0|0,0:0|0:0,0:0:0:0:
319,306,9664,1,2,0:0:0:0:
319,306,9768,1,8,0:0:0:0:
444,204,9976,1,0,0:0:0:0:
383,372,10185,6,0,P|407:331|405:284,1,95,2|0,0:0|0:0,0:0:0:0:
360,220,10497,1,2,0:0:0:0:
360,220,10601,2,0,L|364:172,1,47.5,8|0,0:0|0:0,0:0:0:0:
388,48,10810,2,0,P|307:28|304:111,1,190,0|0,0:0|0:0,0:0:0:0:
304,111,11330,1,2,0:0:0:0:
304,111,11435,1,8,0:0:0:0:
452,176,11643,1,2,0:0:0:0:
280,192,11851,6,0,L|185:199,1,95,2|0,0:0|0:0,0:0:0:0:
96,64,12268,2,0,P|123:101|120:148,1,95,8|0,0:0|0:0,0:0:0:0:
20,276,12685,2,0,P|3:319|18:363,1,95,2|0,0:0|0:0,0:0:0:0:
200,304,13101,1,8,0:0:0:0:
124,220,13310,1,0,0:0:0:0:
212,320,13518,6,0,L|308:324,1,95,2|0,0:0|0:0,0:0:0:0:
448,244,13935,2,0,P|401:248|360:225,1,95,8|2,0:0|0:0,0:0:0:0:
267,59,14351,2,0,P|299:145|245:219,1,190,2|8,0:0|0:0,0:0:0:0:
16,256,14976,1,8,0:0:0:0:
16,256,15080,1,8,0:0:0:0:
16,256,15185,5,2,0:0:0:0:
116,156,15393,1,0,0:0:0:0:
20,156,15601,1,8,0:0:0:0:
116,256,15810,1,0,0:0:0:0:
248,204,16018,5,2,0:0:0:0:
372,332,16226,1,0,0:0:0:0:
248,332,16435,1,8,0:0:0:0:
372,204,16643,1,0,0:0:0:0:
208,32,16851,5,2,0:0:0:0:
268,108,17060,1,0,0:0:0:0:
376,20,17268,1,8,0:0:0:0:
364,116,17476,1,0,0:0:0:0:
503,130,17685,5,2,0:0:0:0:
364,216,17893,1,0,0:0:0:0:
500,300,18101,1,8,0:0:0:0:
336,304,18310,1,0,0:0:0:0:
312,284,18414,1,0,0:0:0:0:
288,264,18518,5,2,0:0:0:0:
364,116,18726,1,0,0:0:0:0:
460,252,18935,2,0,L|366:234,1,95,8|0,0:0|0:0,0:0:0:0:
204,64,19351,6,0,P|190:109|198:155,1,95,2|0,0:0|0:0,0:0:0:0:
352,216,19768,2,0,P|360:262|346:307,1,95,8|0,0:0|0:0,0:0:0:0:
164,364,20185,2,0,P|155:317|169:272,1,95,2|0,0:0|0:0,0:0:0:0:
284,124,20601,2,0,B|342:131|342:131|354:179|320:223|273:216,1,190,8|0,0:0|0:0,0:0:0:0:
256,208,21435,5,8,0:0:0:0:
400,216,21643,1,0,0:0:0:0:
508,123,21851,5,2,0:0:0:0:
404,227,22060,1,0,0:0:0:0:
503,227,22268,1,8,0:0:0:0:
404,123,22476,1,0,0:0:0:0:
266,176,22685,5,2,0:0:0:0:
137,43,22893,1,0,0:0:0:0:
266,43,23101,1,8,0:0:0:0:
137,176,23310,1,0,0:0:0:0:
308,357,23518,5,2,0:0:0:0:
244,277,23726,1,0,0:0:0:0:
133,369,23935,1,8,0:0:0:0:
145,269,24143,1,0,0:0:0:0:
1,254,24351,5,2,0:0:0:0:
145,164,24560,1,0,0:0:0:0:
3,77,24768,1,8,0:0:0:0:
174,73,24976,1,0,0:0:0:0:
199,93,25080,1,0,0:0:0:0:
224,114,25185,5,2,0:0:0:0:
145,269,25393,1,0,0:0:0:0:
244,132,25601,2,0,L|237:226,1,95,8|0,0:0|0:0,0:0:0:0:
52,232,26018,2,0,L|58:326,1,95,2|0,0:0|0:0,0:0:0:0:
228,332,26435,2,0,P|274:328|312:300,1,95,8|0,0:0|0:0,0:0:0:0:
356,144,26851,6,0,L|349:49,1,95,2|0,0:0|0:0,0:0:0:0:
475,151,27268,2,0,P|493:195|481:239,1,95,8|0,0:0|0:0,0:0:0:0:
368,256,27685,1,0,0:0:0:0:
436,332,27893,1,0,0:0:0:0:
192,220,28101,1,8,0:0:0:0:
408,60,28310,2,0,L|416:96,4,23.75,8|8|8|8|8,0:0|0:0|0:0|0:0|0:0,0:0:0:0:
256,192,28622,12,0,30185,0:0:0:0:
