osu file format v11

[General]
AudioFilename: harehareyukai.mp3
AudioLeadIn: 2000
PreviewTime: 29373
Countdown: 1
SampleSet: None
StackLeniency: 0.7
Mode: 1
LetterboxInBreaks: 1

[Editor]
Bookmarks: 7396,18559,29722,40885,51699
DistanceSpacing: 1.1
BeatDivisor: 4
GridSize: 32

[Metadata]
Title:Hare Hare Yukai
TitleUnicode:ハレ晴レユカイ
Artist:Hirano Aya, Minori Chihara & Yuko Goto
ArtistUnicode:平野 綾, 茅原 実里 & 後藤 邑子
Creator:KinomiCandy
Version:Taiko Oni
Source:The Melancholy of Haruhi Suzumiya
Tags:sos brigade suzumiya haruhi no yuutsu kyon yuki nagato mikuru asahina itsuki koizumi ozzyozrock
BeatmapID:220163
BeatmapSetID:78775

[Difficulty]
HPDrainRate:5
CircleSize:4
OverallDifficulty:5
ApproachRate:5
SliderMultiplier:1.4
SliderTickRate:2

[Events]
//Background and Video events
0,0,"BG.jpg"
//Break Periods
//Storyboard Layer 0 (Background)
//Storyboard Layer 1 (Fail)
//Storyboard Layer 2 (Pass)
//Storyboard Layer 3 (Foreground)
//Storyboard Sound Samples
//Background Colour Transformations
3,100,0,0,0

[TimingPoints]
445,348.837209302326,4,1,0,70,1,0
29747,-100,4,1,0,70,0,1
52072,-100,4,1,0,70,0,0

[HitObjects]
256,192,445,1,0,0:0:0
256,192,619,1,8,0:0:0
256,192,706,1,8,0:0:0
256,192,793,1,8,0:0:0
256,192,881,1,8,0:0:0
256,192,968,1,8,0:0:0
256,192,1142,1,8,0:0:0
256,192,1200,1,8,0:0:0
256,192,1258,1,8,0:0:0
256,192,1317,1,0,0:0:0
256,192,1491,1,8,0:0:0
256,192,1665,1,0,0:0:0
256,192,1840,1,4,0:0:0
256,192,2014,1,8,0:0:0
256,192,2101,1,8,0:0:0
256,192,2189,1,8,0:0:0
256,192,2363,1,0,0:0:0
256,192,2538,1,8,0:0:0
256,192,2712,1,8,0:0:0
256,192,2886,1,8,0:0:0
256,192,2974,1,8,0:0:0
256,192,3061,1,8,0:0:0
256,192,3148,1,8,0:0:0
256,192,3235,1,0,0:0:0
256,192,3410,1,8,0:0:0
256,192,3497,1,8,0:0:0
256,192,3584,1,8,0:0:0
256,192,3758,1,0,0:0:0
256,192,3933,1,8,0:0:0
256,192,4107,1,8,0:0:0
256,192,4282,1,8,0:0:0
256,192,4369,1,8,0:0:0
256,192,4456,1,8,0:0:0
256,192,4543,1,8,0:0:0
256,192,4631,1,0,0:0:0
256,192,4892,1,8,0:0:0
256,192,4979,1,8,0:0:0
256,192,5154,1,0,0:0:0
256,192,5328,1,8,0:0:0
256,192,5503,1,8,0:0:0
256,192,5590,1,8,0:0:0
256,192,5677,1,8,0:0:0
256,192,5851,1,4,0:0:0
256,192,6200,1,12,0:0:0
256,192,6549,1,4,0:0:0
256,192,6898,1,0,0:0:0
256,192,7072,1,8,0:0:0
256,192,7247,1,0,0:0:0
256,192,7421,1,4,0:0:0
256,192,7596,1,0,0:0:0
256,192,7770,1,8,0:0:0
256,192,7945,1,0,0:0:0
256,192,8119,1,0,0:0:0
256,192,8206,1,0,0:0:0
256,192,8293,1,8,0:0:0
256,192,8468,1,0,0:0:0
256,192,8642,1,8,0:0:0
256,192,8729,1,8,0:0:0
256,192,8817,1,8,0:0:0
256,192,8991,1,0,0:0:0
256,192,9165,1,8,0:0:0
256,192,9340,1,8,0:0:0
256,192,9514,1,0,0:0:0
256,192,9689,1,8,0:0:0
256,192,9863,1,0,0:0:0
256,192,10038,1,8,0:0:0
256,192,10125,1,8,0:0:0
256,192,10212,1,8,0:0:0
256,192,10474,1,0,0:0:0
256,192,10561,1,8,0:0:0
256,192,10735,1,8,0:0:0
256,192,10910,1,0,0:0:0
256,192,11084,1,8,0:0:0
256,192,11258,1,0,0:0:0
256,192,11433,1,8,0:0:0
256,192,11520,1,8,0:0:0
256,192,11607,1,0,0:0:0
256,192,11782,1,8,0:0:0
256,192,11869,1,8,0:0:0
256,192,11956,1,0,0:0:0
256,192,12131,1,8,0:0:0
256,192,12218,1,8,0:0:0
256,192,12305,1,0,0:0:0
256,192,12479,1,8,0:0:0
256,192,12567,1,8,0:0:0
256,192,12654,1,0,0:0:0
256,192,12828,1,0,0:0:0
256,192,13003,1,4,0:0:0
256,192,13177,1,8,0:0:0
256,192,13264,1,8,0:0:0
256,192,13351,1,0,0:0:0
256,192,13439,1,8,0:0:0
256,192,13613,1,8,0:0:0
256,192,13700,1,0,0:0:0
256,192,13875,1,8,0:0:0
256,192,14049,1,0,0:0:0
256,192,14136,1,8,0:0:0
256,192,14224,1,8,0:0:0
256,192,14311,1,8,0:0:0
256,192,14398,1,0,0:0:0
256,192,14572,1,8,0:0:0
256,192,14747,1,0,0:0:0
256,192,14921,1,8,0:0:0
256,192,15008,1,8,0:0:0
256,192,15096,1,0,0:0:0
256,192,15270,1,8,0:0:0
256,192,15357,1,8,0:0:0
256,192,15445,1,0,0:0:0
256,192,15619,1,8,0:0:0
256,192,15793,1,0,0:0:0
256,192,15968,1,8,0:0:0
256,192,16055,1,8,0:0:0
256,192,16142,1,0,0:0:0
256,192,16317,1,8,0:0:0
256,192,16491,1,0,0:0:0
256,192,16665,1,0,0:0:0
256,192,16840,1,8,0:0:0
256,192,17014,1,0,0:0:0
256,192,17189,1,8,0:0:0
256,192,17276,1,0,0:0:0
256,192,17363,1,0,0:0:0
256,192,17450,1,0,0:0:0
256,192,17538,1,8,0:0:0
256,192,17712,1,0,0:0:0
256,192,17886,1,8,0:0:0
256,192,18061,1,0,0:0:0
256,192,18235,1,8,0:0:0
256,192,18322,1,8,0:0:0
256,192,18410,1,8,0:0:0
256,192,18497,1,8,0:0:0
256,192,18584,1,0,0:0:0
256,192,18933,1,8,0:0:0
256,192,19107,1,0,0:0:0
256,192,19282,1,0,0:0:0
256,192,19631,1,8,0:0:0
256,192,19805,1,0,0:0:0
256,192,20154,1,0,0:0:0
256,192,20328,1,8,0:0:0
256,192,20503,1,0,0:0:0
256,192,20677,1,0,0:0:0
256,192,20851,1,8,0:0:0
256,192,20939,1,8,0:0:0
256,192,21026,1,8,0:0:0
256,192,21375,1,0,0:0:0
256,192,21724,1,8,0:0:0
256,192,21898,1,0,0:0:0
256,192,22072,1,0,0:0:0
256,192,22421,1,8,0:0:0
256,192,22596,1,0,0:0:0
256,192,22945,1,0,0:0:0
256,192,23119,1,8,0:0:0
256,192,23293,1,0,0:0:0
256,192,23468,1,0,0:0:0
256,192,23642,1,8,0:0:0
256,192,23817,1,8,0:0:0
256,192,24165,1,0,0:0:0
256,192,24340,1,8,0:0:0
256,192,24427,1,8,0:0:0
256,192,24514,1,8,0:0:0
256,192,24689,1,0,0:0:0
256,192,24950,1,0,0:0:0
256,192,25038,1,8,0:0:0
256,192,25212,1,8,0:0:0
256,192,25386,1,0,0:0:0
256,192,25561,1,8,0:0:0
256,192,25648,1,8,0:0:0
256,192,25735,1,8,0:0:0
256,192,25910,1,8,0:0:0
256,192,26084,1,0,0:0:0
256,192,26346,1,0,0:0:0
256,192,26433,1,8,0:0:0
256,192,26607,1,8,0:0:0
256,192,26782,1,8,0:0:0
256,192,26956,1,0,0:0:0
256,192,27043,1,8,0:0:0
256,192,27131,1,8,0:0:0
256,192,27218,1,8,0:0:0
256,192,27305,1,0,0:0:0
256,192,27479,1,8,0:0:0
256,192,27654,1,0,0:0:0
256,192,27741,1,8,0:0:0
256,192,27828,1,8,0:0:0
256,192,28003,1,0,0:0:0
256,192,28177,1,12,0:0:0
256,192,28526,1,4,0:0:0
256,192,28875,1,12,0:0:0
256,192,29049,1,12,0:0:0
256,192,29747,1,4,0:0:0
256,192,29921,1,0,0:0:0
256,192,30096,1,8,0:0:0
256,192,30270,1,0,0:0:0
256,192,30357,1,0,0:0:0
256,192,30445,1,0,0:0:0
256,192,30619,1,0,0:0:0
256,192,30793,1,8,0:0:0
256,192,30968,1,0,0:0:0
256,192,31142,1,0,0:0:0
256,192,31229,1,0,0:0:0
256,192,31317,1,8,0:0:0
256,192,31404,1,8,0:0:0
256,192,31491,1,0,0:0:0
256,192,31665,1,8,0:0:0
256,192,31840,1,0,0:0:0
256,192,32014,1,8,0:0:0
256,192,32101,1,8,0:0:0
256,192,32189,1,0,0:0:0
256,192,32363,1,8,0:0:0
256,192,32538,1,0,0:0:0
256,192,32712,1,8,0:0:0
256,192,32799,1,8,0:0:0
256,192,32886,1,0,0:0:0
256,192,33061,1,8,0:0:0
256,192,33148,1,8,0:0:0
256,192,33235,1,0,0:0:0
256,192,33410,1,8,0:0:0
256,192,33497,1,8,0:0:0
256,192,33584,1,0,0:0:0
256,192,33758,1,8,0:0:0
256,192,33933,1,0,0:0:0
256,192,34020,1,8,0:0:0
256,192,34107,1,8,0:0:0
256,192,34195,1,8,0:0:0
256,192,34282,1,0,0:0:0
256,192,34456,1,8,0:0:0
256,192,34631,1,0,0:0:0
256,192,34718,1,0,0:0:0
256,192,34805,1,8,0:0:0
256,192,34892,1,8,0:0:0
256,192,34979,1,0,0:0:0
256,192,35154,1,8,0:0:0
256,192,35328,1,0,0:0:0
256,192,35415,1,0,0:0:0
256,192,35503,1,8,0:0:0
256,192,35590,1,8,0:0:0
256,192,35677,1,0,0:0:0
256,192,35851,1,8,0:0:0
256,192,36026,1,0,0:0:0
256,192,36200,1,8,0:0:0
256,192,36288,1,8,0:0:0
256,192,36375,1,0,0:0:0
256,192,36549,1,8,0:0:0
256,192,36724,1,0,0:0:0
256,192,36811,1,0,0:0:0
256,192,36898,1,0,0:0:0
256,192,36985,1,0,0:0:0
256,192,37072,1,8,0:0:0
256,192,37247,1,8,0:0:0
256,192,37421,1,0,0:0:0
256,192,37596,1,8,0:0:0
256,192,37683,1,8,0:0:0
256,192,37770,1,0,0:0:0
256,192,37945,1,8,0:0:0
256,192,38119,1,0,0:0:0
256,192,38293,1,0,0:0:0
256,192,38468,1,8,0:0:0
256,192,38642,1,0,0:0:0
256,192,38729,1,0,0:0:0
256,192,38817,1,0,0:0:0
256,192,38904,1,0,0:0:0
256,192,38991,1,0,0:0:0
256,192,39165,1,8,0:0:0
256,192,39340,1,4,0:0:0
256,192,39689,1,12,0:0:0
256,192,40038,1,4,0:0:0
256,192,40386,1,12,0:0:0
256,192,40735,1,0,0:0:0
256,192,40910,1,0,0:0:0
256,192,41084,1,8,0:0:0
256,192,41258,1,4,0:0:0
256,192,41433,1,8,0:0:0
256,192,41520,1,8,0:0:0
256,192,41607,1,0,0:0:0
256,192,41782,1,8,0:0:0
256,192,41956,1,0,0:0:0
256,192,42043,1,8,0:0:0
256,192,42131,1,8,0:0:0
256,192,42218,1,8,0:0:0
256,192,42305,1,0,0:0:0
256,192,42479,1,8,0:0:0
256,192,42567,1,8,0:0:0
256,192,42654,1,0,0:0:0
256,192,42828,1,8,0:0:0
256,192,43003,1,0,0:0:0
256,192,43177,1,8,0:0:0
256,192,43264,1,8,0:0:0
256,192,43351,1,0,0:0:0
256,192,43526,1,8,0:0:0
256,192,43700,1,0,0:0:0
256,192,43788,1,0,0:0:0
256,192,43875,1,8,0:0:0
256,192,43962,1,8,0:0:0
256,192,44049,1,0,0:0:0
256,192,44136,1,0,0:0:0
256,192,44224,1,8,0:0:0
256,192,44311,1,8,0:0:0
256,192,44398,1,0,0:0:0
256,192,44572,1,8,0:0:0
256,192,44747,1,0,0:0:0
256,192,44921,1,8,0:0:0
256,192,45008,1,8,0:0:0
256,192,45096,1,0,0:0:0
256,192,45183,1,8,0:0:0
256,192,45357,1,8,0:0:0
256,192,45445,1,0,0:0:0
256,192,45619,1,8,0:0:0
256,192,45793,1,0,0:0:0
256,192,45968,1,8,0:0:0
256,192,46055,1,8,0:0:0
256,192,46142,1,0,0:0:0
256,192,46317,1,8,0:0:0
256,192,46491,1,0,0:0:0
256,192,46578,1,8,0:0:0
256,192,46665,1,8,0:0:0
256,192,46753,1,8,0:0:0
256,192,46840,1,0,0:0:0
256,192,47014,1,8,0:0:0
256,192,47189,1,0,0:0:0
256,192,47363,1,8,0:0:0
256,192,47450,1,8,0:0:0
256,192,47538,1,0,0:0:0
256,192,47712,1,8,0:0:0
256,192,47886,1,0,0:0:0
256,192,48061,1,8,0:0:0
256,192,48148,1,8,0:0:0
256,192,48235,1,0,0:0:0
256,192,48410,1,8,0:0:0
256,192,48671,1,0,0:0:0
256,192,48758,1,0,0:0:0
256,192,48933,1,8,0:0:0
256,192,49107,1,0,0:0:0
256,192,49282,1,8,0:0:0
256,192,49369,1,8,0:0:0
256,192,49456,1,8,0:0:0
256,192,49543,1,8,0:0:0
256,192,49631,1,0,0:0:0
256,192,49718,1,0,0:0:0
256,192,49805,1,0,0:0:0
256,192,49892,1,0,0:0:0
256,192,49979,1,8,0:0:0
256,192,50067,1,8,0:0:0
256,192,50154,1,8,0:0:0
256,192,50241,1,8,0:0:0
256,192,50328,1,0,0:0:0
256,192,50415,1,0,0:0:0
256,192,50503,1,0,0:0:0
256,192,50590,1,0,0:0:0
256,192,50677,1,8,0:0:0
256,192,50851,1,0,0:0:0
256,192,50939,1,0,0:0:0
256,192,51026,1,8,0:0:0
256,192,51200,1,0,0:0:0
256,192,51375,1,0,0:0:0
256,192,51462,1,0,0:0:0
256,192,51549,1,0,0:0:0
256,192,51636,1,8,0:0:0
256,192,51724,1,0,0:0:0
256,192,51898,1,8,0:0:0
256,192,52072,1,0,0:0:0
256,192,52247,1,8,0:0:0
256,192,52334,1,8,0:0:0
256,192,52421,1,0,0:0:0
256,192,52596,1,8,0:0:0
256,192,52770,1,0,0:0:0
256,192,52945,1,8,0:0:0
256,192,53032,1,8,0:0:0
256,192,53119,1,0,0:0:0
256,192,53293,1,8,0:0:0
256,192,53468,1,0,0:0:0
256,192,53642,1,8,0:0:0
256,192,53729,1,8,0:0:0
256,192,53817,1,0,0:0:0
256,192,53991,1,8,0:0:0
256,192,54165,1,0,0:0:0
256,192,54340,1,8,0:0:0
256,192,54514,1,0,0:0:0
256,192,54601,1,0,0:0:0
256,192,54689,1,8,0:0:0
256,192,54776,1,8,0:0:0
256,192,54863,1,0,0:0:0
256,192,55038,1,8,0:0:0
256,192,55125,1,8,0:0:0
256,192,55212,1,0,0:0:0
256,192,55386,1,8,0:0:0
256,192,55474,1,8,0:0:0
256,192,55561,1,0,0:0:0
256,192,55735,1,0,0:0:0
256,192,55822,1,0,0:0:0
256,192,55910,1,8,0:0:0
256,192,56084,1,0,0:0:0
256,192,56171,1,8,0:0:0
256,192,56258,1,0,0:0:0
256,192,57131,1,0,0:0:0
256,192,57305,1,8,0:0:0
256,192,57479,1,8,0:0:0
256,192,57654,1,0,0:0:0
256,192,57828,1,8,0:0:0
256,192,57915,1,8,0:0:0
256,192,58003,1,8,0:0:0
256,192,58177,1,0,0:0:0
256,192,58351,1,8,0:0:0
256,192,58526,1,8,0:0:0
256,192,58613,1,8,0:0:0
256,192,58700,1,8,0:0:0
256,192,58875,1,0,0:0:0
256,192,59049,1,8,0:0:0
256,192,59224,1,8,0:0:0
256,192,59311,1,8,0:0:0
256,192,59398,1,8,0:0:0
256,192,59485,1,8,0:0:0
256,192,59572,1,0,0:0:0
256,192,59747,1,8,0:0:0
256,192,59921,1,0,0:0:0
256,192,60096,1,12,0:0:0
256,192,60619,1,12,0:0:0
256,192,60968,1,0,0:0:0
256,192,61142,1,8,0:0:0
256,192,61317,1,0,0:0:0
256,192,61491,1,8,0:0:0
256,192,61665,1,0,0:0:0
256,192,61840,1,0,0:0:0
256,192,62014,1,0,0:0:0
256,192,62189,1,8,0:0:0
256,192,62363,1,0,0:0:0
256,192,62450,1,8,0:0:0
256,192,62538,1,0,0:0:0
256,192,62712,1,0,0:0:0
256,192,62886,1,8,0:0:0
256,192,62974,1,8,0:0:0
256,192,63061,1,8,0:0:0
256,192,63235,1,8,0:0:0
256,192,63410,1,0,0:0:0
