osu file format v6

[General]
AudioFilename: Hamatte Sabotte Oh My Ga!.mp3
AudioLeadIn: 1996
PreviewTime: 45493
Countdown: 1
SampleSet: Normal
StackLeniency: 0.7
Mode: 0
LetterboxInBreaks: 1

[Editor]
DistanceSpacing: 1
BeatDivisor: 4
GridSize: 8

[Metadata]
Title:Hamatte Sabotte Oh My Ga!
Artist:Hirano Aya, Kato Emiri, Fukuha
Creator:ztrot
Version:Insane
Source:Lucky Star Ryouou Gakuen Outousai
Tags:Anime Videogame

[Difficulty]
HPDrainRate:6
CircleSize:4
OverallDifficulty:7
SliderMultiplier:1.7
SliderTickRate:2

[Events]
//Background and Video events
0,0,"BG.jpg"
Video,0,"video_xvid_001.avi"
//Break Periods
//Storyboard Layer 0 (Background)
//Storyboard Layer 1 (Fail)
//Storyboard Layer 2 (Pass)
//Storyboard Layer 3 (Foreground)
//Storyboard Sound Samples
//Background Colour Transformations
3,100,163,162,255

[TimingPoints]
670,352.941176470588,4,1,1,70,1,0
1993,-100,4,1,0,70,0,0
2170,-100,4,1,1,70,0,0
4817,-100,4,1,0,70,0,0
4993,-100,4,1,1,70,0,0
7640,-100,4,1,0,70,0,0
7817,-100,4,1,1,70,0,0
13464,-100,4,1,0,70,0,0
13640,-100,4,1,1,70,0,0
14875,-100,4,1,0,70,0,0
15052,-100,4,1,1,70,0,0
16287,-100,4,1,0,70,0,0
16464,-100,4,1,1,70,0,0
19111,-100,4,1,0,70,0,0
19287,-100,4,1,1,70,0,0
20522,-100,4,1,0,70,0,0
20699,-100,4,1,1,70,0,0
21052,-100,4,1,0,70,0,0
21228,-100,4,1,1,70,0,0
29346,-100,4,1,0,70,0,0
29522,-100,4,1,1,70,0,0
31464,-100,4,1,0,70,0,0
31640,-100,4,1,1,70,0,0
40640,-100,4,1,0,70,0,0
40817,-100,4,1,1,70,0,0
51228,-100,4,1,0,70,0,0
51405,-100,4,1,1,70,0,0
56699,-100,4,1,0,70,0,0
57052,-100,4,1,1,70,0,0
61464,-100,4,1,0,70,0,0
61640,-100,4,1,1,70,0,0
61993,-100,4,1,0,70,0,0
62170,-100,4,1,1,70,0,0
62875,-100,4,1,0,70,0,0
63052,-100,4,1,1,70,0,0
63405,-100,4,1,0,70,0,0
63581,-100,4,1,1,70,0,0
71170,-100,4,1,0,70,0,0
71346,-100,4,1,1,70,0,0
72758,-100,4,1,0,70,0,0
72934,-100,4,1,1,70,0,0
73287,-100,4,1,0,70,0,0
73464,-100,4,1,1,70,0,0
74170,-100,4,1,0,70,0,0
74346,-100,4,1,1,70,0,0
75581,-100,4,1,0,70,0,0
75758,-100,4,1,1,70,0,0
75934,-100,4,1,0,70,0,0
76111,-100,4,1,1,70,0,0
77522,-100,4,1,0,70,0,0
77699,-100,4,1,1,70,0,0
78405,-100,4,1,0,70,0,0
78581,-100,4,1,1,70,0,0
78934,-100,4,1,0,70,0,0
79287,-100,4,1,1,70,0,0
82464,-100,4,1,0,70,0,0
82640,-100,4,1,1,70,0,0
82817,-100,4,1,0,70,0,0
82993,-100,4,1,1,70,0,0
83170,-100,4,1,0,70,0,0
83346,-100,4,1,1,70,0,0
85287,-100,4,1,0,70,0,0
85287,-100,4,1,0,70,0,0
85640,-100,4,1,0,70,0,0
85817,-100,4,1,1,70,0,0
88111,-100,4,1,0,70,0,0
88287,-100,4,1,1,70,0,0

[Colours]
Combo1 : 200,145,255
Combo2 : 119,119,255
Combo3 : 142,45,232
Combo4 : 253,147,253

[HitObjects]
40,55,670,2,0,B|104:135,1,85,4|0
152,56,1022,1,8
208,120,1199,1,0
263,55,1375,2,0,B|328:130,1,85,4|0
376,56,1728,1,8
432,120,1905,2,0,B|496:200|424:288,1,170,4|4
376,216,2434,1,8
328,288,2611,1,0
288,288,2699,1,0
248,288,2787,1,0
192,224,2964,1,4
136,288,3140,1,8
80,224,3317,1,4
40,296,3493,5,4
80,224,3669,1,0
80,136,3846,1,8
80,48,4022,1,0
152,96,4199,1,4
224,48,4375,1,0
224,136,4552,1,8
224,224,4728,2,0,B|264:312|360:312,1,170,4|4
357,311,5169,1,0
358,312,5258,1,8
416,248,5434,1,0
416,248,5522,1,0
416,248,5611,1,0
416,160,5787,1,4
480,104,5964,1,8
416,48,6140,1,4
328,48,6317,6,4,B|240:112,1,85
184,48,6669,1,8
112,96,6846,1,0
42,48,7022,2,0,B|122:104,1,85,4|0
184,144,7375,1,8
184,232,7552,2,4,B|88:280|16:176,1,170
33,196,7993,1,0
32,195,8081,1,8
32,280,8258,1,0
96,336,8434,1,4
184,336,8611,1,0
272,336,8787,1,8
360,336,8964,1,0
320,264,9140,5,4
240,184,9317,1,0
240,184,9405,1,0
240,184,9493,1,8
320,104,9669,1,4
392,184,9846,1,0
392,184,9934,1,0
392,184,10022,1,0
432,264,10199,5,8
80,264,10552,1,4
432,264,10905,1,4
80,120,11258,5,4
32,192,11434,1,8
80,264,11611,1,8
256,144,11964,5,2
352,288,12317,1,8
280,240,12493,2,0,B|192:312,1,85
144,344,12846,1,4
72,304,13022,1,8
72,136,13375,2,0,B|120:208|152:80|248:160,1,170,4|8
288,208,13905,1,0
312,128,14081,1,4
384,176,14258,1,4
440,112,14434,1,8
384,312,14787,6,0,B|304:344|208:312,1,170,4|8
128,312,15317,1,0
128,144,15669,1,4
40,144,15846,1,8
192,64,16199,2,0,B|224:152|320:192,1,170,4|8
328,104,16728,1,0
416,112,16905,1,4
424,200,17081,1,0
352,248,17258,1,8
96,152,17611,5,6
264,152,17964,1,8
464,312,18493,1,4
464,224,18669,1,8
464,56,19022,2,0,B|416:144|312:144,1,170,4|8
272,80,19552,1,0
216,144,19728,1,0
272,208,19905,1,4
216,272,20081,1,8
64,192,20434,6,0,B|32:304|136:336,1,170,4|8
208,336,20964,2,0,B|272:288|312:376|376:328,1,170,0|4
368,248,21493,1,8
256,120,21846,6,0,B|256:184,16,42.5,0|0|0|0|0|0|0|0|0|0|0|0|0|0|0|2|2
192,72,23434,5,0
192,72,23522,1,0
192,72,23611,1,8
104,72,23787,1,0
64,72,23875,1,0
40,112,23964,1,0
40,200,24140,2,0,B|72:296|176:336,1,170,4|0
232,328,24669,1,0
320,328,24846,1,0
320,288,24934,1,0
320,248,25022,1,8
408,248,25199,1,0
408,288,25287,1,0
408,328,25375,1,0
480,288,25552,2,0,B|480:112,1,170,4|0
320,56,26258,5,4
320,96,26346,1,0
320,136,26434,1,8
232,136,26611,1,0
232,176,26699,1,0
232,216,26787,1,0
144,216,26964,2,4,B|48:216|48:80,1,170
208,48,27669,5,4
256,120,27846,1,8
304,48,28022,1,0
328,80,28111,1,0
352,112,28199,1,0
408,48,28375,1,4
464,112,28552,1,8
408,176,28728,1,0
376,208,28817,1,0
344,232,28905,1,0
288,168,29081,1,0
232,232,29258,2,0,B|56:232,1,170,8|0
64,144,29787,1,4
64,56,29964,1,8
320,56,30493,5,4
376,120,30669,1,8
432,56,30846,1,0
456,88,30934,1,0
480,120,31022,1,0
480,208,31199,1,4
480,296,31375,2,4,B|408:352|304:336,1,170,12|4
256,280,31905,1,4
320,224,32081,1,8
88,336,32611,5,4
88,248,32787,1,8
88,160,32964,1,4
256,16,33317,1,4
424,160,33669,1,4
256,288,34022,1,0
256,288,34199,1,8
88,288,34552,5,6
48,216,34728,1,0
72,184,34817,1,0
96,152,34905,1,8
152,216,35081,1,4
184,184,35169,1,0
216,152,35258,2,0,B|304:152,1,85,0|4
360,88,35611,1,8
448,88,35787,5,0
488,160,35964,1,4
440,232,36140,1,0
408,256,36228,1,0
368,280,36317,1,8
320,216,36493,1,4
288,240,36581,1,0
256,264,36669,1,0
240,344,36846,2,0,B|144:360|72:280,1,170,4|0
56,56,37552,5,4
96,40,37640,1,0
136,56,37728,1,8
56,136,37905,1,0
96,144,37993,1,0
136,136,38081,1,0
96,208,38258,2,0,B|136:296|240:296,1,170,4|4
400,296,38964,5,0
464,240,39140,1,8
400,184,39317,1,0
400,184,39405,1,0
400,184,39493,1,0
464,128,39669,1,4
464,128,39758,1,0
464,128,39846,1,8
464,40,40022,1,0
424,16,40111,1,0
384,40,40199,1,0
296,40,40375,1,0
296,128,40552,2,0,B|200:224|360:192|280:288,1,170,8|0
208,272,41081,1,4
120,272,41258,1,8
368,344,41787,5,4
368,256,41964,1,8
456,256,42140,1,0
432,216,42228,1,0
408,184,42317,1,0
368,104,42493,1,4
304,160,42669,1,8
240,104,42846,1,0
176,160,43022,1,4
112,104,43199,1,0
48,160,43375,1,8
112,216,43552,5,4
256,304,43905,1,4
256,216,44081,1,8
256,128,44258,1,4
416,64,44611,1,4
416,232,44964,1,4
256,304,45317,1,0
256,216,45493,5,8
416,152,45846,1,2
360,56,46022,1,0
304,152,46199,1,4
96,152,46552,1,4
256,344,46905,1,0
256,256,47081,1,0
256,24,47434,1,4
256,112,47611,1,0
256,344,47964,1,4
480,192,48317,5,4
480,192,48493,1,0
32,192,48846,1,0
32,192,49022,1,4
256,24,49375,1,0
256,344,49728,1,0
256,344,49905,1,4
256,24,50258,1,0
256,24,50434,1,4
80,72,50787,1,0
80,160,50964,1,0
80,248,51140,6,4,B|80:352|208:368,1,170,6|6
208,280,51669,1,0
304,280,51846,1,0
256,24,52199,1,4
40,352,52552,1,0
88,280,52728,1,4
472,352,53081,1,0
408,288,53258,1,4
256,24,53611,1,4
256,344,53964,5,0
256,256,54140,1,0
312,192,54317,1,0
192,192,54493,1,0
376,136,54846,1,4
136,136,55199,1,4
256,24,55552,1,4
256,112,55728,1,0
256,256,56081,1,0
256,344,56258,1,4
424,344,56611,6,0,B|480:264|440:152|360:112,1,255,4|4
32,352,57846,1,0
8,272,58022,1,0
72,208,58199,1,0
160,224,58375,1,0
176,312,58552,5,2
112,368,58728,1,0
256,192,59081,1,4
256,104,59258,1,0
488,96,59611,1,4
488,184,59787,1,0
256,192,60140,1,0
256,104,60317,1,4
96,40,60669,5,4
40,104,60846,1,0
32,192,61022,1,8
104,240,61199,1,0
176,192,61375,2,0,B|304:320,1,170,4|8
384,312,61905,2,0,B|512:192,1,170,4|0
440,144,62434,1,8
472,64,62611,1,0
472,64,62699,1,0
472,64,62787,2,4,B|296:64,1,170,4|8
208,64,63317,2,0,B|24:64,1,170
40,152,63846,1,8
256,304,64199,5,6
256,216,64375,1,0
96,136,64728,1,4
184,136,64905,1,0
416,136,65258,1,4
328,136,65434,1,0
256,352,65787,1,4
256,264,65964,1,0
104,344,66317,5,0
104,256,66493,2,4,B|32:184|112:96,1,170,4|0
192,112,67022,1,4
224,80,67111,1,0
256,48,67199,1,0
312,112,67375,1,8
368,48,67552,1,0
424,112,67728,1,4
400,144,67817,1,0
368,176,67905,1,0
288,216,68081,1,8
288,304,68258,1,0
160,304,68434,5,4
80,256,68611,1,4
80,168,68787,1,4
160,208,68964,1,4
160,120,69140,1,0
240,160,69317,1,0
240,248,69493,1,2
480,344,69846,5,2
352,344,70022,2,0,B|256:360|176:296,1,170,4|4
104,304,70552,1,0
104,136,70905,1,12
104,48,71081,2,4,B|192:16|272:48,1,170
344,96,71611,1,8
448,232,71964,5,0
384,288,72140,1,0
320,232,72317,1,8
256,288,72493,1,4
224,264,72581,1,0
192,232,72669,2,0,B|88:264|40:176,1,170,4|8
80,104,73199,2,0,B|128:32|200:144|248:72,1,170,4|0
304,40,73728,1,8
360,104,73905,1,0
392,136,73993,1,0
424,168,74081,2,0,B|480:256|384:336,1,170,4|8
312,320,74611,1,0
224,320,74787,5,4
168,256,74964,1,0
112,320,75140,1,12
56,256,75317,1,0
56,168,75493,2,0,B|56:72|176:72,2,170,6|12|4
144,168,76375,1,0
192,240,76552,1,8
240,168,76728,1,0
288,240,76905,1,0
336,168,77081,2,4,B|432:160|496:256,2,170
336,80,77964,1,8
256,48,78140,1,0
176,88,78317,2,4,B|56:176|112:320,2,255,8|4|8
384,240,79905,5,4
384,152,80081,1,0
432,80,80258,1,4
336,80,80434,1,0
168,72,80787,1,2
40,192,81140,5,4
136,336,81493,1,8
304,336,81846,1,0
440,232,82199,1,8
440,144,82375,2,0,B|392:48|280:88,3,170,4|4|4|4
352,168,83611,1,8
48,336,83964,5,4
48,168,84317,1,8
176,40,84669,1,4
176,208,85022,1,0
176,296,85199,2,4,B|272:328|352:256,3,170
248,232,86434,1,8
192,168,86611,1,0
192,80,86787,6,0,B|264:152,1,85,4|0
312,80,87140,1,8
368,144,87317,1,0
424,80,87493,2,0,B|480:152,1,85,4|0
424,216,87846,1,8
368,280,88022,2,0,B|312:352|200:336,1,170
208,256,88552,1,8
208,168,88728,1,4
168,192,88817,1,0
128,216,88905,1,4
56,168,89081,1,0
56,80,89258,1,12
144,40,89434,1,0
232,40,89611,5,0
312,56,89787,1,4
312,96,89875,1,0
312,136,89964,1,8
384,96,90140,1,0
384,184,90317,1,4
384,224,90405,1,0
384,264,90493,1,0
312,304,90669,5,12
144,304,91022,5,4
40,168,91375,5,4
232,168,91728,5,2
328,40,91905,1,0
416,168,92081,1,2
