osu file format v9

[General]
AudioFilename: Unnamed World.mp3
AudioLeadIn: 0
PreviewTime: 44444
Countdown: 0
SampleSet: Soft
StackLeniency: 0.4
Mode: 0
LetterboxInBreaks: 1

[Editor]
DistanceSpacing: 1.2
BeatDivisor: 4
GridSize: 8

[Metadata]
Title:Unnamed World (TV Size)
Artist:Hirano Aya
Creator:Eirene
Version:Insane
Source:Nijuu-Mensou no Musume
Tags:scar1410 Sushi

[Difficulty]
HPDrainRate:7
CircleSize:4
OverallDifficulty:7
ApproachRate:8
SliderMultiplier:1.6
SliderTickRate:1

[Events]
//Background and Video events
0,0,"Untitled-1.jpg"
Video,99,"Unnamed World (TV Size) Video.AVI"
//Break Periods
//Storyboard Layer 0 (Background)
//Storyboard Layer 1 (Fail)
//Storyboard Layer 2 (Pass)
//Storyboard Layer 3 (Foreground)
//Storyboard Sound Samples
//Background Colour Transformations
3,100,163,162,255

[TimingPoints]
4454,370.37037037037,4,2,1,100,1,0
11758,-100,4,2,2,100,0,0
23240,-100,4,2,1,100,0,0
44443,-100,4,2,1,100,0,1
55925,-100,4,2,1,100,0,0
56295,-100,4,2,1,100,0,1
65925,-100,4,2,1,100,0,0
75462,-100,4,2,0,0,0,0

[HitObjects]
256,32,4454,5,6
136,80,4731,1,8
136,80,4824,1,0
88,168,5009,5,8
88,192,5102,1,2
88,216,5194,1,0
88,240,5287,1,8
88,264,5379,1,2
88,288,5472,1,0
88,312,5565,2,0,B|120:312|120:312|200:312|200:224,1,160,8|2
376,224,6120,5,2
336,152,6305,2,0,B|304:112|240:136,2,80,8|0|2
280,208,6861,2,0,B|256:256|302:293,2,80,2|8|2
136,232,7416,6,0,B|80:168,1,80,2|2
24,24,7787,2,0,B|88:96,1,80,8|2
221,164,8157,2,0,B|165:100,1,80,2|0
168,104,8435,1,0
168,104,8528,1,8
344,80,8713,5,2
472,192,8898,6,0,B|480:296,1,80,2|0
408,320,9268,2,0,B|432:360|488:352,2,80,8|2|2
360,248,9824,1,0
304,320,10009,2,0,B|280:272|216:272,2,80,8|0|2
224,360,10565,1,0
128,336,10750,1,8
48,272,10935,1,2
144,248,11120,1,2
224,192,11305,1,0
128,152,11491,2,0,B|80:144|48:88,1,80,8|2
200,24,11861,6,0,B|304:24,1,80,0|0
368,24,12231,1,8
368,112,12416,2,0,B|384:160|432:168,2,80,0|2|0
288,160,12972,1,8
344,232,13157,2,0,B|296:304,1,80,0|2
216,336,13528,2,0,B|112:312,1,80,0|8
64,264,13898,1,0
32,176,14083,1,2
48,80,14268,2,0,B|64:32|112:16,1,80,0|8
256,192,14639,5,2
413,362,14824,6,0,B|448:352|464:304,2,80,2|0|8
376,280,15379,1,0
288,256,15565,2,0,B|304:208|352:192,1,80,2|0
432,192,15935,2,0,B|480:176|488:104,1,80,8|0
440,48,16305,2,0,B|344:48,1,80,2|0
296,120,16676,1,8
232,48,16861,1,0
168,120,17046,1,2
232,192,17231,2,0,B|200:232|128:216,1,80,0|8
384,88,17602,5,2
495,223,17787,6,0,B|482:302,1,80,2|0
400,344,18157,2,0,B|336:294,1,80,8|0
352,200,18528,2,0,B|288:150,1,80,2|0
206,191,18898,2,0,B|192:269,1,80,8|0
96,272,19268,1,2
96,272,19453,1,0
144,352,19639,1,8
144,352,19824,1,0
240,352,20009,1,2
240,352,20194,2,0,B|325:352,1,80,0|8
224,192,20565,5,2
128,32,20750,5,2
128,32,20935,2,0,B|40:32,2,80,0|8|0
224,32,21491,1,2
224,32,21676,2,0,B|320:32,2,80,0|8|0
176,112,22231,5,2
176,112,22416,2,0,B|152:160|184:216,1,80,8|2
272,280,22787,2,0,B|296:240|272:176,1,80,8|2
88,48,23157,2,0,B|64:88|80:144,1,80,10|8
96,256,23528,1,2
96,256,23620,1,0
96,256,23713,1,4
304,336,24083,5,8
304,336,24176,1,0
304,336,24268,1,0
304,336,24361,1,0
304,336,24453,2,0,B|360:344|400:296,2,80,2|0|8
248,256,25009,1,0
192,176,25194,2,0,B|104:176|136:248|16:232,1,160,2|8
48,144,25750,1,2
48,144,25935,2,0,B|10:110|24:64,2,80,2|2|8
112,80,26491,1,0
192,32,26676,2,0,B|280:32|248:104|368:88,1,160,2|8
424,56,27231,5,0
480,128,27416,2,0,B|480:176|424:200,1,80,2|2
344,176,27787,2,0,B|280:152|232:168|184:216,1,160,8|2
280,248,28342,1,2
208,304,28528,2,0,B|168:344|96:320,1,80,8|0
48,304,28898,1,2
48,208,29083,1,0
48,208,29176,1,0
48,208,29268,2,0,B|56:144|128:112|192:184,1,160,8|6
176,256,29824,2,0,B|208:296|272:288,1,80,2|8
344,288,30194,5,2
432,248,30379,1,2
472,160,30565,2,0,B|480:104|425:71,1,80,0|8
296,32,30935,5,2
200,40,31120,1,2
112,80,31305,2,0,B|72:104|72:152,1,80,0|8
112,296,31676,5,2
184,360,31861,1,2
288,368,32046,2,0,B|344:368|376:328,2,80,8|8|2
440,256,32602,5,4
392,176,32787,1,2
296,160,32972,2,0,B|209:169|254:48|155:79,1,160,8|2
80,72,33528,1,2
80,72,33713,1,8
56,320,34083,5,2
56,320,34268,1,2
144,360,34453,1,8
144,360,34639,1,2
232,320,34824,1,2
328,360,35009,1,8
328,360,35102,1,0
328,360,35194,1,8
328,360,35287,1,0
328,360,35379,2,0,B|376:360|408:312,1,80,2|4
256,200,35750,5,2
160,224,35935,2,0,B|96:224|56:160|96:96,1,160,8|8
160,48,36491,1,2
256,24,36676,2,0,B|304:16|352:48,2,80,8|4|0
280,112,37231,1,0
280,112,37416,1,8
304,200,37602,2,0,B|344:224|384:216,1,80,2|2
480,208,37972,5,8
480,112,38157,2,0,B|480:0,2,80,8|4|0
480,208,38713,1,0
448,296,38898,2,0,B|424:336|376:352,1,80,8|0
288,352,39268,1,0
288,352,39361,1,0
288,352,39453,1,8
288,352,39546,1,0
288,352,39639,2,0,B|192:352,2,80,8|0|2
336,272,40194,2,0,B|320:224|264:216,1,80,2|8
200,272,40565,5,2
200,272,40750,1,2
120,224,40935,1,8
120,224,41120,1,12
48,280,41305,1,0
16,192,41491,5,4
48,104,41676,2,0,B|144:64,1,80,2|8
320,80,42046,5,4
224,240,42231,1,2
122,74,42416,1,4
122,74,42787,5,0
208,112,42972,2,8,B|248:192,1,80,4|2
320,360,43342,5,8
432,216,43528,1,4
244,183,43713,1,2
432,216,43898,1,4
408,88,44083,5,0
408,88,44176,1,0
408,88,44268,1,0
408,88,44361,1,0
408,88,44453,6,0,B|320:88|352:160|232:144,1,160,6|8
176,128,45009,1,2
104,72,45194,1,0
48,144,45379,1,8
48,144,45472,1,0
48,144,45565,2,0,B|8:160|0:208,2,80,8|0|2
96,224,46120,1,2
184,264,46305,1,8
240,176,46491,2,0,B|328:176,1,80,2|2
280,264,46861,2,0,B|368:264,1,80,8|8
488,144,47231,5,2
432,64,47416,1,2
336,24,47602,2,0,B|288:8|240:32,1,80,0|8
112,120,47972,5,2
176,192,48157,1,2
280,216,48342,2,0,B|320:224|368:192,1,80,0|8
432,304,48713,5,2
432,304,48805,1,8
432,304,48898,2,0,B|464:352|524:340,2,80,2|0|8
344,336,49453,1,2
256,304,49639,1,2
208,224,49824,2,0,B|176:176|200:120,1,80,8|8
336,48,50194,6,0,B|384:32|432:48,1,80,2|4
376,192,50565,2,0,B|352:216|280:208,1,80,0|8
144,120,50935,2,0,B|184:96|240:112,1,80,2|2
184,272,51305,2,0,B|152:304|80:288,1,80,0|8
32,160,51676,6,0,B|16:112|32:64,2,80,2|2|0
32,160,52231,1,8
56,248,52416,1,2
32,336,52602,2,0,B|72:360|120:328,1,80,2|8
192,280,52972,1,12
192,280,53065,1,0
192,280,53157,1,8
192,280,53250,1,0
192,280,53342,6,0,B|240:248|240:184,2,80,4|0|8
256,352,53898,1,8
328,288,54083,1,2
400,224,54268,2,0,B|456:224|488:264,1,80,0|8
328,128,54639,5,8
328,128,54731,1,0
328,128,54824,2,0,B|304:88|328:48,2,80,2|0|12
240,168,55379,1,8
240,168,55472,1,0
240,168,55565,1,2
192,88,55750,2,0,B|152:56|88:80,1,80,10|12
64,336,56305,6,0,B|160:336,1,80,4|2
240,336,56676,2,0,B|336:336,2,80,8|0|0
240,248,57231,1,8
239,248,57324,1,0
239,248,57416,2,0,B|256:208|304:200,1,80,8|0
392,176,57787,1,2
472,120,57972,1,0
432,32,58157,1,8
336,32,58342,1,0
304,120,58528,1,2
392,280,58713,6,0,B|406:336|343:372,2,80,8|8|0
295,289,59268,2,0,B|244:281|230:224,1,80,2|0
200,152,59639,1,8
165,61,59824,2,0,B|124:30|77:72,1,80,0|2
40,144,60194,1,2
88,232,60379,1,8
48,320,60565,2,0,B|72:368|136:360,1,80,0|2
184,296,60935,1,2
264,344,61120,1,8
352,304,61305,2,0,B|440:280|456:192,1,160,2|0
360,208,61861,5,8
264,224,62046,2,0,B|280:120|384:112,1,160,2|2
360,208,62602,1,8
352,304,62787,2,0,B|320:336|264:328,1,80,0|2
176,312,63157,2,0,B|128:303|104:251,1,80,0|8
192,208,63528,2,0,B|169:161|99:157,1,80,0|2
32,136,63898,5,8
88,56,64083,1,8
256,32,64268,1,2
200,112,64453,1,2
312,216,64639,1,8
368,136,64824,1,8
472,256,65009,5,2
400,320,65194,1,4
304,352,65379,1,0
200,352,65565,2,0,B|112:352|144:280|24:296,1,160,8|8
16,208,66120,5,0
16,208,66305,1,8
56,120,66491,1,2
56,120,66676,1,2
16,32,66861,1,0
16,32,67046,1,8
112,24,67231,2,0,B|152:32|200:24,1,80,10|2
288,32,67602,2,0,B|336:32|376:80,1,80,8|0
288,120,67972,1,0
376,152,68157,6,0,B|376:240,1,80,8|0
296,192,68528,2,0,B|296:288,1,80,8|0
216,232,68898,2,0,B|216:328,1,80,8|2
136,272,69268,2,0,B|136:368,1,80,8|0
56,312,69639,5,12
56,312,69824,1,0
48,216,70009,2,0,B|48:168|96:128,1,80,8|0
152,72,70379,1,8
152,72,70565,1,2
248,32,70750,2,0,B|296:16|352:40,1,80,8|2
288,112,71120,6,0,B|288:200,1,80,12|0
360,240,71491,2,0,B|360:144,1,80,8|0
432,200,71861,2,0,B|432:296,1,80,8|2
504,320,72231,2,0,B|504:224,1,80,8|0
504,144,72602,5,12
504,144,72787,1,0
464,56,72972,2,0,B|416:32|376:64,1,80,0|2
312,120,73342,1,8
312,120,73528,1,2
232,56,73713,2,0,B|184:32|144:64,1,80,0|2
112,144,74083,6,0,B|112:248,1,80,12|0
200,192,74453,1,8
200,192,74639,2,0,B|288:192,1,80,2|10
344,264,75009,1,2
344,264,75194,2,0,B|240:264,1,80,0|4
256,192,75565,12,0,79268
