osu file format v5

[General]
AudioFilename: 13-Uchuu Tetsujin Kyodain.mp3
AudioLeadIn: 0
PreviewTime: -1
Countdown: 1
SampleSet: None
StackLeniency: 0.7
Mode: 0

[Metadata]
Title:Uchuu Tetsujin Kyodain
Artist:Hirano Aya
Creator:Mafiamaster
Version:Normal
Source:
Tags:

[Difficulty]
HPDrainRate:5
CircleSize:5
OverallDifficulty:5
SliderMultiplier:1.4
SliderTickRate:1

[Events]
//Background and Video events
0,0,"feelinglucky.jpg"
//Break Periods
2,6267,9498
2,50978,59731
2,104418,110084
//Storyboard Layer 0 (Background)
//Storyboard Layer 1 (Failing)
//Storyboard Layer 2 (Passing)
//Storyboard Layer 3 (Foreground)
//Storyboard Sound Samples
//Background Colour Transformations
3,100,163,162,255

[TimingPoints]
10680,419.639110365086,4,0,0,100

[HitObjects]
64,320,2497,1,0
96,288,2706,1,0
160,224,3126,1,0
192,256,3336,1,0
224,224,3546,1,4
352,224,4175,2,4,C|371:242|403:242|448:176,1,140
416,160,4805,2,2,C|384:128|352:160|320:128|288:160|256:128|224:160|192:128|160:160|128:208,1,420
32,32,10680,5,4
64,128,11099,1,0
64,224,11519,1,0
96,256,11729,1,0
128,224,11938,1,0
160,256,12148,1,0
192,224,12358,1,0
224,256,12568,1,0
256,288,12778,2,4,C|288:256|288:224|247:177,1,140
160,32,14037,5,0
128,64,14246,2,0,C|146:95|178:95|210:95|242:95|274:95|319:48,1,227.5
384,32,15296,1,0
416,96,15505,1,0
384,128,15715,1,0
416,160,15925,1,0
384,192,16135,1,0
416,224,16345,1,0
384,256,16554,2,4,C|352:320|320:320|288:288,1,140
256,224,17394,5,0
160,320,18023,1,0
128,288,18233,1,0
96,256,18443,1,0
160,128,19072,2,4,C|192:96|224:128|256:96|288:128|320:96|369:96,1,280
160,32,20751,5,0
256,64,21170,1,0
160,96,21590,2,0,C|192:64|224:64|256:64|288:64|338:118,1,210
384,160,22429,2,4,C|352:192|320:192|320:224|288:224|288:256|256:256|256:288|224:288|142:299,1,350
288,320,24108,2,0,C|256:352|224:320|192:352|160:320|139:292,1,210
128,256,24947,1,4
192,64,25787,5,0
224,96,25996,2,0,C|192:128|224:160|192:194,1,140
160,224,26626,1,4
352,320,27465,5,0
416,224,27885,1,0
352,128,28304,2,0,C|320:160|352:192|320:224|352:256|340:285,1,210
288,320,29144,2,4,C|288:352|256:320|256:352|224:320|224:352|192:320|192:352|160:320|160:352|112:296,1,420
32,256,30822,5,0
64,224,31032,1,0
96,256,31242,1,0
128,224,31452,1,0
160,256,31661,1,0
192,224,31871,1,0
224,224,32081,1,0
320,160,32501,5,4
320,128,32711,1,0
288,96,32920,2,4,C|256:128|224:96|190:136,1,140
224,320,34179,5,0
96,256,34809,2,0,C|128:256|128:224|152:208,1,70
192,128,35648,1,0
256,160,35858,1,4
288,160,36068,1,0
352,224,36487,1,0
384,224,36697,1,4
224,352,37536,5,0
128,320,37956,1,0
64,256,38376,2,2,C|96:224|64:192|96:160|64:128|96:96|64:64|74:56,1,280
448,96,40894,5,0
352,96,41313,1,0
256,96,41733,1,4
96,192,42572,5,0
192,192,42992,1,0
288,192,43411,1,4
448,288,44251,5,0
416,256,44460,2,0,C|369:258|337:226|305:258|273:258|273:222,1,210
256,128,45510,5,4
160,160,45929,5,0
128,192,46139,2,0,C|129:226|161:226|193:194|225:226|280:232,1,210
352,224,47188,5,4
416,128,47608,6,0,C|384:96|352:128|320:96|324:107,1,140
224,96,48447,2,0,C|256:96|256:128|288:128|288:160|320:160|320:192|329:205,1,210
352,224,49286,2,2,C|385:289|385:225|417:289|417:225|449:289|449:222|481:289,1,490
64,64,61036,6,0,C|206:64,1,140
288,64,61875,2,0,C|320:96|288:128|288:184,1,140
384,224,62715,2,2,C|93:224,1,280
32,192,63974,5,4
64,96,64393,5,0
160,160,64813,1,0
256,96,65233,1,0
288,128,65442,1,0
320,96,65652,1,0
352,128,65862,1,0
384,96,66072,1,0
416,192,66492,2,4,C|369:233|337:233|305:201,1,140
192,352,67750,5,0
160,320,67960,2,0,C|178:289|210:289|242:289|274:289|306:289|344:328,1,210
416,352,69009,1,4
448,320,69219,1,0
416,288,69429,1,0
448,256,69639,1,0
416,224,69849,1,0
448,192,70058,1,0
416,160,70268,2,4,C|384:96|352:96|320:128,1,140
256,160,71108,5,0
160,64,71737,1,0
128,96,71947,1,0
96,128,72157,1,0
160,288,72786,2,4,C|192:320|224:288|256:320|288:288|320:320|368:320,1,280
160,352,74465,5,0
256,320,74884,1,0
192,288,75304,2,2,C|224:320|256:320|288:320|320:320|376:256,1,210
416,224,76143,2,4,C|384:192|352:192|352:160|320:160|320:128|288:128|288:96|256:96|174:85,1,350
320,64,77822,2,0,C|288:32|256:64|224:32|192:64|171:92,1,210
128,128,78661,1,4
96,320,79500,2,0,C|64:288|96:256|64:224|96:192|96:160,1,210
128,192,80340,1,4
288,96,81179,5,0
352,128,81599,1,0
416,224,82018,2,0,C|384:192|416:160|384:128|416:96|404:67,1,210
352,64,82857,2,2,C|352:32|320:64|320:32|288:64|288:32|256:64|256:32|224:64|224:32,1,350
96,96,84536,5,0
160,192,84956,1,0
256,192,85375,1,0
352,192,85795,1,0
416,256,86215,5,0
384,288,86424,1,0
352,320,86634,2,0,C|320:288|288:320|254:280,1,140
160,128,87893,5,4
32,192,88523,2,0,C|64:192|64:224|92:206,1,87.5
160,256,89152,1,0
256,224,89572,1,0
288,192,89781,1,0
352,128,90201,1,0
384,96,90411,1,0
192,64,91250,5,4
96,96,91670,1,0
32,160,92089,2,2,C|64:192|32:224|64:256|32:288|64:320|32:352|42:360,1,280
416,64,94607,5,0
320,64,95027,1,0
224,64,95447,1,4
96,192,96286,5,0
192,192,96706,1,0
288,192,97125,1,4
448,288,97964,5,0
384,288,98174,2,0,C|352:288|320:256|288:288|256:288|256:224,1,210
256,160,99223,5,0
160,160,99643,5,0
128,192,99853,2,0,C|129:226|161:226|193:194|225:226|280:224,1,210
352,224,100902,5,0
416,288,101322,6,0,C|384:320|352:288|320:320|324:309,1,140
256,256,102161,2,2,C|288:256|288:224|320:224|320:192|352:192|352:160|361:147,1,210
384,96,103000,2,4,C|417:31|417:95|449:31|449:95|481:31|480:112,1,420
416,96,111393,5,0
352,160,111813,1,0
256,128,112232,1,0
224,160,112442,1,0
192,128,112652,1,0
160,160,112862,1,0
128,128,113071,1,0
64,192,113491,2,4,C|111:233|143:233|175:201,1,140
352,128,114750,5,0
384,160,114960,2,0,C|366:191|334:191|302:191|270:191|238:191|193:144,1,227.5
160,64,116009,1,4
128,96,116219,1,0
160,128,116429,1,0
128,160,116638,1,0
160,192,116848,1,0
128,224,117058,1,0
160,256,117268,2,4,C|192:320|224:320|256:288,1,140
288,224,118107,5,0
352,352,118737,1,0
384,320,118946,1,0
416,288,119156,1,0
480,160,119786,2,4,C|448:128|416:160|384:128|352:160|320:128|264:128,1,280
416,32,121464,5,0
320,32,121884,1,0
320,128,122304,2,0,C|288:96|256:96|224:96|192:96|142:150,1,210
96,160,123143,2,2,C|128:192|160:192|160:224|192:224|192:256|224:256|224:288|256:288|384:352,1,420
256,352,124821,2,0,C|288:384|320:352|352:384|384:352|408:320,1,210
440,296,125661,1,4
480,96,126500,2,0,C|512:128|480:160|512:192|480:224|480:256,1,210
448,192,127339,1,4
352,32,128178,5,0
288,96,128598,1,0
192,64,129018,2,0,C|224:96|192:128|224:160|192:192|204:221,1,210
160,256,129857,2,4,C|160:288|192:256|192:288|224:256|224:288|256:256|256:304,1,280
