osu file format v5

[General]
AudioFilename: 13-Uchuu Tetsujin Kyodain.mp3
AudioLeadIn: 0
PreviewTime: -1
Countdown: 1
SampleSet: None
StackLeniency: 0.7
Mode: 0

[Metadata]
Title:Uchuu Tetsujin Kyodain
Artist:Hirano Aya
Creator:Mafiamaster
Version:Easy
Source:
Tags:

[Difficulty]
HPDrainRate:3
CircleSize:2
OverallDifficulty:3
SliderMultiplier:1.4
SliderTickRate:1

[Events]
//Background and Video events
0,0,"feelinglucky.jpg"
//Break Periods
2,6267,9498
2,50978,59731
2,104418,110084
//Storyboard Layer 0 (Background)
//Storyboard Layer 1 (Failing)
//Storyboard Layer 2 (Passing)
//Storyboard Layer 3 (Foreground)
//Storyboard Sound Samples
//Background Colour Transformations
3,100,163,162,255

[TimingPoints]
10680,419.639110365086,4,0,0,100

[HitObjects]
64,320,2497,1,0
192,224,3126,1,0
288,224,3546,1,4
416,224,4175,2,4,C|435:242|467:242|510:193,1,122.5
480,160,4805,2,2,C|448:128|416:160|384:128|352:160|320:128|288:160|256:128|224:160|184:216,1,420
64,64,10627,5,4
96,256,11519,1,0
288,288,12358,1,0
384,256,12778,2,4,C|416:224|416:192|375:145,1,140
192,64,14037,2,0,C|210:95|242:95|274:95|306:95|338:95|472:96,1,280
480,288,15715,1,0
288,256,16554,2,4,C|256:320|224:320|192:288,1,140
128,224,17394,5,0
32,64,18233,1,0
224,64,19072,2,4,C|256:32|288:64|320:32|352:64|384:32|433:32,1,280
448,224,20751,5,0
288,96,21590,2,0,C|320:64|352:64|384:64|416:64|466:118,1,210
416,160,22429,2,4,C|384:192|352:192|352:224|320:224|320:256|288:256|288:288|256:288|174:299,1,350
320,320,24108,2,0,C|288:352|256:320|224:352|192:320|136:232,1,280
96,64,25787,2,0,C|64:96|96:128|64:162,2,140
192,224,27465,5,0
288,64,28304,2,0,C|256:96|288:128|256:160|288:192|276:221,1,210
320,224,29144,2,4,C|320:256|288:224|288:256|256:224|256:256|224:224|224:256|192:224|192:256|152:200,1,420
64,160,30875,5,0
256,128,31661,1,0
448,160,32501,2,4,C|416:192|384:160|350:200,2,140
320,320,34179,5,0
192,256,34809,2,0,C|224:256|224:224|240:200,1,70
96,96,35858,1,0
256,96,36697,1,0
352,256,37536,5,0
128,288,38376,2,2,C|160:256|128:224|160:192|128:160|160:128|128:96|138:88,1,280
384,64,40894,5,0
288,256,41733,1,4
128,96,42572,5,0
352,64,43411,1,4
416,256,44251,2,0,C|369:258|337:226|305:258|273:258|272:152,1,280
224,64,45510,5,4
128,128,45929,2,0,C|129:162|161:162|193:130|225:162|344:160,1,280
416,224,47188,5,4
448,128,47608,6,0,C|416:96|384:128|352:96|356:107,1,140
224,96,48447,2,0,C|256:96|256:128|288:128|288:160|320:160|320:192|329:205,1,210
352,256,49286,2,2,C|385:321|385:257|417:321|417:257|449:321|449:254|481:321,1,490
64,64,61036,6,0,C|206:64,1,140
320,64,61875,6,0,C|320:134,1,70
320,288,62715,2,2,C|29:288,1,280
32,192,63974,5,4
64,96,64393,5,0
288,96,65233,1,0
512,96,66072,1,0
480,192,66492,2,4,C|433:233|401:233|369:201,1,140
160,192,67750,2,0,C|178:161|210:161|242:161|274:161|306:161|384:247,1,280
160,320,69429,1,0
384,256,70268,2,4,C|352:192|320:192|288:224,1,140
384,128,71108,5,0
160,128,71947,1,0
320,288,72786,2,4,C|352:320|384:288|416:320|448:288|480:320|536:320,1,280
480,96,74465,5,0
288,224,75304,2,2,C|256:256|224:256|192:256|160:256|112:192,1,210
96,128,76143,2,4,C|128:160|160:160|160:192|192:192|192:224|224:224|224:256|256:256|338:267,1,350
384,128,77822,2,0,C|352:96|320:128|288:96|256:128|235:156,1,210
224,192,78661,1,0
32,320,79500,2,0,C|0:288|32:256|0:224|32:192|97:120,1,280
288,96,81179,5,0
448,256,82018,2,0,C|416:224|448:192|416:160|448:128|436:99,1,210
384,96,82857,2,2,C|384:64|352:96|352:64|320:96|320:64|288:96|288:64|256:96|256:64,1,350
128,128,84536,5,0
224,320,85375,1,0
416,224,86214,5,0
288,224,86634,2,0,C|256:192|224:224|190:184,1,140
32,32,87893,5,4
32,192,88523,2,0,C|64:192|64:224|88:216,1,70
256,320,89571,1,0
384,128,90410,1,0
192,32,91250,5,0
32,160,92089,2,2,C|64:192|32:224|64:256|32:288|64:320|32:352|42:360,1,280
384,64,94607,5,0
160,128,95447,1,4
64,320,96286,5,0
288,320,97126,1,4
448,192,97965,2,0,C|416:192|384:160|352:192|320:192|256:80,1,280
160,64,99224,5,0
64,128,99643,2,0,C|65:162|97:162|129:130|161:162|240:160,1,210
352,128,100902,5,0
384,224,101322,6,0,C|352:256|320:224|288:256|292:245,1,140
160,288,102161,2,2,C|192:288|192:256|224:256|224:224|256:224|256:192|265:179,1,210
320,160,103000,2,4,C|353:95|353:159|385:95|385:159|417:95|416:176,1,420
448,64,111393,5,0
256,160,112232,1,0
64,320,113491,2,4,C|111:361|143:361|175:329,1,140
384,256,114750,2,0,C|366:287|334:287|302:287|270:287|238:287|144:208,1,280
320,64,116429,1,0
160,224,117268,2,4,C|192:288|224:288|256:256,1,140
352,192,118107,5,0
128,160,118946,1,0
320,256,119786,2,4,C|288:224|256:256|224:224|192:256|160:224|96:223,1,280
32,32,121464,5,0
256,64,122304,2,0,C|224:32|192:32|160:32|128:32|78:86,1,210
128,128,123143,2,2,C|160:160|192:160|192:192|224:192|224:224|256:224|256:256|288:256|424:320,1,420
256,288,124821,2,0,C|288:320|320:288|352:320|384:288|400:256,1,210
480,160,126500,2,0,C|512:192|480:224|512:256|480:288|480:320,1,210
192,352,128178,5,0
288,128,129018,2,0,C|320:160|288:192|320:224|288:256|300:285,1,210
224,256,129857,2,4,C|224:288|256:256|256:288|288:256|288:288|320:256|320:304,1,280
